Discovery. Битвы роботов / Battle Bots [1-3 сезоны: 37 серий из 37] (2015-2018) HDTVRip 720p от GeneralFilm

Reply to topic
 
Author Message

Starik60 ®

Gender: Male

Longevity: 1 year

Posts: 191

Location: Москва, Россия

Post 17-Nov-2018 14:56

[Quote]

Битвы роботов / Battle Bots
Год выпуска: 2015-2018
Жанр: Документальный, приключения, реалити-шоу
Выпущено: США, Discovery Channel HD
Комментаторы: Василий Уткин, Владимир Стогниенко, Антон Комолов, Евгений Рыбов
О фильме: В новом сезоне зрители увидят еще больше роботов – количество поединков в каждом эпизоде вырастет до пяти. Как и прежде, схватка будет длиться 3 минуты, в течение которых соперники должны вывести друг друга из строя: когда нокаутированный робот перестает двигаться, судья начинает обратный отсчет до объявления победы. На исходе трех минут на арене появляются ловушки – пилы, молоты и дробилки, которые добавляют поединку остроты и непредсказуемости и делают его еще более зрелищным. Помимо традиционных боев один на один в каждом эпизоде будут проводиться матчи-реванши участников прошлых сезонов, парные состязания и масштабные схватки сразу 12 роботов. Лучшие из лучших будут продвигаться вверх по турнирной таблице, а в финал проекта выйдут 16 самых стойких участников. В заключительном эпизоде они сразятся в грандиозной битве, победитель которой будет награжден главным призом — гигантской гайкой, легендарным символом состязаний.

Качество: HDTVRip 720p
Видео: MPEG-4 AVC, ~ 4000 Кбит/с, 1280x720
Аудио: MP2, 2 ch, 192 Кбит/с
Продолжительность: 37 x ~ 00:44:00
Перевод: Профессиональный (многоголосый, закадровый), профессиональный (двухголосый, закадровый)

Скриншоты


MediaInfo

General
Unique ID : 80431846280234804711265031934520106560 (0x3C829C310B2796111ED68E5166709E40)
Complete name : H:\Раздачи 3\Битвы роботов S01-03 720p GeneralFilm\3 сезон\01 Битвы роботов GeneralFilm.mkv
Format : Matroska
Format version : Version 2
File size : 1.28 GiB
Duration : 43 min 47 s
Overall bit rate mode : Constant
Overall bit rate : 4 198 kb/s
Writing application : Lavf54.63.104
Writing library : Lavf54.63.104
Video
ID : 1
Format : AVC
Format/Info : Advanced Video Codec
Format profile : High@L4.1
Format settings : CABAC / 3 Ref Frames
Format settings, CABAC : Yes
Format settings, ReFrames : 3 frames
Codec ID : V_MPEG4/ISO/AVC
Duration : 43 min 47 s
Bit rate mode : Constant
Bit rate : 4 000 kb/s
Width : 1 280 pixels
Height : 720 pixels
Display aspect ratio : 16:9
Frame rate mode : Constant
Frame rate : 50.000 FPS
Standard : PAL
Color space : YUV
Chroma subsampling : 4:2:0
Bit depth : 8 bits
Scan type : Progressive
Bits/(Pixel*Frame) : 0.087
Stream size : 1.20 GiB (93%)
Default : No
Forced : No
Color range : Limited
Color primaries : BT.709
Transfer characteristics : BT.709
Matrix coefficients : BT.709
Audio
ID : 2
Format : MPEG Audio
Format version : Version 1
Format profile : Layer 2
Codec ID : A_MPEG/L2
Codec ID/Hint : MP2
Duration : 43 min 47 s
Bit rate mode : Constant
Bit rate : 192 kb/s
Channel(s) : 2 channels
Sampling rate : 48.0 kHz
Compression mode : Lossy
Delay relative to video : 16 ms
Stream size : 60.1 MiB (5%)
Language : English
Default : Yes
Forced : No
Благодарю за отличный постер ValkiriaGF
Релиз от:
[Profile] [PM]
Display posts:    
Reply to topic

Current time is: 07-Dec 15:54

All times are UTC + 3



You cannot post new topics in this forum
You cannot reply to topics in this forum
You cannot edit your posts in this forum
You cannot delete your posts in this forum
You cannot vote in polls in this forum
You cannot attach files in this forum
You cannot download files in this forum