National Geographic. Марс / Mars [2 сезон: 1-6 серии из 6] (2018) SATRip от GeneralFilm

Reply to topic
 
Author Message

Starik60 ®

Gender: Male

Longevity: 10 months 6 days

Posts: 161

Location: Москва, Россия

Post 24-Nov-2018 18:55

[Quote]

Марс / Mars Год выпуска: 2018
Жанр: Документально-постановочный, фантастика, драма, приключения
Выпущено: США, Imagine Entertainment, RadicalMedia, Zak Productions
Режиссер: Эверардо Валерио Гоут, Стивен Крегг, Эшли Вэй
В ролях: Джихе, Альберто Амман, Клементин Пуадац, Сэмми Ротиби, Анамария Маринка, Николас Уиттман, Косима Шоу, Оливье Мартинес, Джефф Хефнер, Гуннар Этли Котэри
О фильме: В 2033 году на Марс отправляется первая человеческая экспедиция из шести человек. Их цель — создание первого человеческого поселения на Марсе. Однако в процессе создания поселения им придется столкнуться с множеством испытаний и опасностей, которые таит Марс.

Качество: SATRip
Видео: XviD, 1600 Кбит/с, 720x400
Аудио: AC3, 2 ch, 192 Кбит/с
Продолжительность: 6 x ~ 00:47:00
Перевод: Профессиональный (двухголосый, закадровый)

Скриншоты



MediaInfo

General
Complete name : H:\Раздачи 4\Марс S02 GeneralFilm\01 Марс GeneralFilm.avi
Format : AVI
Format/Info : Audio Video Interleave
File size : 605 MiB
Duration : 46 min 55 s
Overall bit rate : 1 802 kb/s
Writing application : VirtualDubMod 1.5.10.3 | www.virtualdub-fr.org || (build 2550/release)
Writing library : VirtualDubMod build 2550/release
Video
ID : 0
Format : MPEG-4 Visual
Format profile : Advanced Simple@L5
Format settings : BVOP1 / Custom Matrix
Format settings, BVOP : 1
Format settings, QPel : No
Format settings, GMC : No warppoints
Format settings, Matrix : Custom
Codec ID : XVID
Codec ID/Hint : XviD
Duration : 46 min 55 s
Bit rate : 1 600 kb/s
Width : 720 pixels
Height : 400 pixels
Display aspect ratio : 16:9
Frame rate : 25.000 FPS
Color space : YUV
Chroma subsampling : 4:2:0
Bit depth : 8 bits
Scan type : Progressive
Compression mode : Lossy
Bits/(Pixel*Frame) : 0.222
Stream size : 537 MiB (89%)
Writing library : XviD 73
Audio
ID : 1
Format : AC-3
Format/Info : Audio Coding 3
Commercial name : Dolby Digital
Codec ID : 2000
Duration : 46 min 55 s
Bit rate mode : Constant
Bit rate : 192 kb/s
Channel(s) : 2 channels
Channel layout : L R
Sampling rate : 48.0 kHz
Frame rate : 31.250 FPS (1536 SPF)
Bit depth : 16 bits
Compression mode : Lossy
Stream size : 64.4 MiB (11%)
Alignment : Split accross interleaves
Interleave, duration : 40 ms (1.00 video frame)
Interleave, preload duratio : 500 ms
Service kind : Complete Main

Название серий

01. "Мы не одиноки"
02. "Другие миры".
03. "И наступает темнота".
04. "Инфекция".
05. "Сильная позиция".
06. "Встряска".

Внимание! Раздача ведётся путём добавления новых серий!

Внимание! Раздача ведётся путём добавления новых серий; при каждом добавлении создfётся новый торрент. Чтобы начать докачку новой серии, пользователям необходимо сделать следующее: (1) остановить скачивание, (2) удалить старый торрент у себя из клиента (старые серии удалять не надо), (3) скачать новый торрент и запустить его у себя в клиенте вместо старого, при этом указать клиенту путь в старую папку куда и должно происходить скачивание новых серий.
Ваш клиент при этом должен произвести хеширование (проверку) старой папки (если не производит сам - помогите ему сделать это), и будет докачивать только те серии которых у вас ещё нет. Старые серии при этом не удаляются, а продолжают раздаваться!
Eсли вы уже удалили старые серии, то предотвратить повторную закачку старых серий можно, отжав галочку в соответсвующих местах при запуске нового торрента.
Релиз от:
[Profile] [PM]
Display posts:    
Reply to topic

Current time is: 19-Sep 06:07

All times are UTC + 3



You cannot post new topics in this forum
You cannot reply to topics in this forum
You cannot edit your posts in this forum
You cannot delete your posts in this forum
You cannot vote in polls in this forum
You cannot attach files in this forum
You cannot download files in this forum