Мама [1-16 серии из 16] (2018) WEB-DLRip от Files-x

Ответить на тему
 
Автор Сообщение

Nicodem ®

Пол: Мужской

Стаж: 4 месяца 7 дней

Сообщений: 178

Создавать темы 24-Ноя-2018 19:40

[Цитировать]

Мама
Год выпуска: 2018
Жанр: Мелодрама
Выпущено: Россия, Студия 2В
Режиссер: Гузэль Киреева
В ролях: Юлия Мельникова, Марина Дровосекова, Павел Трубинер, Алёна Новицкая, Борис Щербаков, Галина Польских, Андрей Шишков (II), Мариам Мерабова, Владимир Кошевой, Валерия Шкирандо, Алексей Матошин, Анна Попова, Екатерина Кульчицкая, Дэни Аласания, Александр Бобров (IV), Юлия Куварзина, Наталия Гаранина, Екатерина Васильева (II), Елена Чарквиани, Владимир Фекленко, Степан Абрамов, Дарья Ярцева, Кристина Герстендорф, Элина Киреева, Александр Трачевский, Виталий Щербина, Джеральд Алборов, Артём Кошман, Армен Арушанян, Ирина Ефремова (II), Марта Магилевская, Светлана Малюкова, Сергей Рубеко, Виктор Степанян, Сергей Тезов, Олег Филипчик, Эрик Яралов
О фильме: Молодая учительница русского языка и литературы Вера Субботина начала новую жизнь: переехала из Санкт-Петербурга в Москву и устроилась на работу в лицей. Новый коллектив, новые ученики, новые знакомства, но старые ошибки прошлого неожиданно напомнили о себе… Встреча с негласным лидером класса, трудным подростком Кристиной и ее родителями, Надеждой и Кириллом Успенскими, перевернула жизнь Веры и вернула в прошлое, от которого она так пыталась убежать... Несколько лет назад Вере пришлось отказаться от своей любви к Кириллу, чтобы не разрушить счастье Надежды, хотя он умолял ее остаться. Теперь судьба снова подвергает ее испытаниям, сталкивая с любимым человеком в сложной ситуации. Сможет ли Вера побороть свои чувства или все-таки выберет любовь — мужчину, готового ради нее на все?
Качество: WEB-DLRip
Видео: XviD, ~ 1500 Кбит/с, 720x400, 25 кадр/с
Аудио: AC3, 2 ch, 192 Кбит/с
Продолжительность: 16 x ~ 00:47:00
Перевод: Не требуется
Cубтитры: нет

Скриншоты


MediaInfo

General
Complete name : C:\Users\DOM\Downloads\mama.2018.WEB-DLRip.Files-x\01.mama.2018.WEB-DLRip.Files-x.avi
Format : AVI
Format/Info : Audio Video Interleave
File size : 577 MiB
Duration : 47mn 26s
Overall bit rate : 1 702 Kbps
Writing application : VirtualDubMod 1.5.10.3 | www.virtualdub-fr.org || (build 2550/release)
Writing library : VirtualDubMod build 2550/release
Video
ID : 0
Format : MPEG-4 Visual
Format profile : Advanced Simple@L5
Format settings, BVOP : 1
Format settings, QPel : No
Format settings, GMC : No warppoints
Format settings, Matrix : Custom
Codec ID : XVID
Codec ID/Hint : XviD
Duration : 47mn 26s
Bit rate : 1 500 Kbps
Width : 720 pixels
Height : 400 pixels
Display aspect ratio : 16:9
Frame rate : 25.000 fps
Color space : YUV
Chroma subsampling : 4:2:0
Bit depth : 8 bits
Scan type : Progressive
Compression mode : Lossy
Bits/(Pixel*Frame) : 0.208
Stream size : 509 MiB (88%)
Writing library : XviD 73
Audio
ID : 1
Format : AC-3
Format/Info : Audio Coding 3
Mode extension : CM (complete main)
Codec ID : 2000
Duration : 47mn 26s
Bit rate mode : Constant
Bit rate : 192 Kbps
Channel(s) : 2 channels
Channel positions : Front: L R
Sampling rate : 48.0 KHz
Bit depth : 16 bits
Compression mode : Lossy
Stream size : 65.1 MiB (11%)
Alignment : Split accross interleaves
Interleave, duration : 40 ms (1.00 video frame)
Interleave, preload duration : 500 ms
Релиз от:

Релиз подготовлен R.G.Files-x

[Профиль] [ЛС]
Показать сообщения:    
Ответить на тему

Текущее время: 25-Мар 13:50

Часовой пояс: UTC + 3



Вы не можете начинать темы
Вы не можете отвечать на сообщения
Вы не можете редактировать свои сообщения
Вы не можете удалять свои сообщения
Вы не можете голосовать в опросах
Вы не можете прикреплять файлы к сообщениям
Вы не можете скачивать файлы