Вампиры / Vampires (1998) BDRip-AVC от Generalfilm | DUB

Reply to topic
 
Author Message

Winchester96 ®

Gender: Male

Longevity: 1 year

Posts: 12

Location: Казахстан

Post 17-Nov-2018 15:03

[Quote]

Вампиры / Vampires
Название: Вампиры
Оригинальное название:Vampires
Год выпуска: 1998 г.
Жанр: Ужасы, боевик, триллер
Выпущено: США, Япония
Режиссер: Джон Карпентер
В ролях: Джеймс Вудс (Jack Crow), Дэниэл Болдуин (Anthony Montoya), Шерил Ли (Katrina), Томас Йен Гриффит (Jan Valek), Максимилиан Шелл (Cardinal Alba), Тим Гини (Father Adam Guiteau), Марк Бун Джуниор (Catlin), Грегори Сьерра (Father Giovanni), Кэри-Хироюки Тагава (David Deyo), Томас Розалес мл. (Ortega), Генри Кинги (Anthony), Дэвид Роуден (Bambi)
О фильме: По заданию Ватикана Джек Кроу, потомственный охотник на вампиров, и его друг, и напарник Монтойя безжалостно расправляются с вурдалаками, но их главная цель - особо опасный вампир Валек, уроженец Праги, 1300-го года рождения. В охоте на вампира Джеку и Монтойе помогает молодой священник, вооруженный знаниями из древних трактатов о кровососах.
Качество: BDRip-AVC
Видео: AVC, 1024x428 (2.40:1), 1683 kbps, 24 fps, 0,160 bpp
Аудио: Русский / AC3 / 5.1 / 48 kHz / 448 kbps / ||
Продолжительность: 01:47:47
Перевод: Профессиональный (дублированный)
Cубтитры: нет

Скриншоты

MediaInfo

General
Unique ID : 189180909101163306723927723020841474580 (0x8E52EAF343E6E989BF7DF10438E15A14)
Complete name : E:Запись с твVampires.1998.BDRip-AVC.Rip.by.White Smoke.R.G.Generalfilm.mkv
Format : Matroska
Format version : Version 4 / Version 2
File size : 1.60 GiB
Duration : 1 h 47 min
Overall bit rate : 2 131 kb/s
Movie name : Vampires.1998.BDRip-AVC.Rip.by.White Smoke.R.G.Generalfilm.mkv
Encoded date : UTC 2018-11-05 14:14:55
Writing application : mkvmerge v6.8.0 ('Theme for Great Cities') 64bit built on Mar 2 2014 21:34:26
Writing library : libebml v1.3.0 + libmatroska v1.4.1
Video
ID : 1
Format : AVC
Format/Info : Advanced Video Codec
Format profile : High@L4.1
Format settings, CABAC : Yes
Format settings, ReFrames : 10 frames
Codec ID : V_MPEG4/ISO/AVC
Duration : 1 h 47 min
Bit rate : 1 683 kb/s
Width : 1 024 pixels
Height : 428 pixels
Display aspect ratio : 2.40:1
Frame rate mode : Constant
Frame rate : 24.000 FPS
Color space : YUV
Chroma subsampling : 4:2:0
Bit depth : 8 bits
Scan type : Progressive
Bits/(Pixel*Frame) : 0.160
Stream size : 1.24 GiB (77%)
Writing library : x264 core 148 r2638 7599210
Encoding settings : cabac=1 / ref=10 / deblock=1:-2:-1 / analyse=0x3:0x113 / me=umh / subme=11 / psy=1 / psy_rd=0.00:0.15 / mixed_ref=1 / me_range=32 / chroma_me=1 / trellis=2 / 8x8dct=1 / cqm=0 / deadzone=21,11 / fast_pskip=0 / chroma_qp_offset=-3 / threads=6 / lookahead_threads=1 / sliced_threads=0 / nr=0 / decimate=0 / interlaced=0 / bluray_compat=0 / constrained_intra=0 / bframes=10 / b_pyramid=2 / b_adapt=2 / b_bias=0 / direct=1 / weightb=1 / open_gop=0 / weightp=2 / keyint=240 / keyint_min=24 / scenecut=40 / intra_refresh=0 / rc_lookahead=40 / rc=2pass / mbtree=1 / bitrate=1683 / ratetol=1.0 / qcomp=0.65 / qpmin=0 / qpmax=69 / qpstep=4 / cplxblur=20.0 / qblur=0.5 / vbv_maxrate=50000 / vbv_bufsize=65500 / nal_hrd=none / filler=0 / ip_ratio=1.40 / aq=1:1.00
Language : English
Default : Yes
Forced : No
Audio
ID : 2
Format : AC-3
Format/Info : Audio Coding 3
Mode extension : CM (complete main)
Format settings, Endianness : Big
Codec ID : A_AC3
Duration : 1 h 47 min
Bit rate mode : Constant
Bit rate : 448 kb/s
Channel(s) : 6 channels
Channel positions : Front: L C R, Side: L R, LFE
Sampling rate : 48.0 kHz
Frame rate : 31.250 FPS (1536 spf)
Compression mode : Lossy
Stream size : 345 MiB (21%)
Language : Russian
Default : Yes
Forced : No
[Profile] [PM]
Display posts:    
Reply to topic

Current time is: 07-Dec 15:52

All times are UTC + 3



You cannot post new topics in this forum
You cannot reply to topics in this forum
You cannot edit your posts in this forum
You cannot delete your posts in this forum
You cannot vote in polls in this forum
You cannot attach files in this forum
You cannot download files in this forum