Новый год не наступит никогда (2017) WEBRip-AVC от Files-x

Reply to topic
 
Author Message

Серый1779 ®

Gender: Male

Longevity: 6 months 11 days

Posts: 438

Location: Украина

Post 24-Nov-2018 21:26

[Quote]

Новый год не наступит никогда
Год выпуска: 2017
Жанр: Комедия
Выпущено: Россия, Junior Film
Режиссер: Филипп Дмитриев
В ролях: Олег Захаров, Аркадий Тимофеев, Анастасия Стяжкова, Татьяна Хрусталёва, Александр Хрусталев, Никита Кореннов, Анжелика Рузайкина, Евгений Важенин, Александр Некрасов, Марат Галиулин, Борис Ковальчук
О фильме: В дом семьи Шишкиных приезжают родственники, чтобы весело встретить Новый год. Однако, по необъяснимым причинам, Новый год никак не наступает. Каждое следующее утро календарь снова и снова показывает 31 декабря. Обитатели дома ищут выход из петли времени. Чтобы в полночь наступило 1 января и пришёл Новый год, взрослые и дети должны исправить ошибки и не очень хорошие поступки, которые они совершали в последний день. Но одни неспособны осознать свои промахи, а некоторым просто пришлись по душе эти необычные каникулы…

Качество: WEBRip-AVC
Видео: MPEG-4 AVC, ~ 2340 Кбит/с, 1024x576, 25 кадр/с
Аудио: AC3, 2 ch, 192 Кбит/с
Продолжительность: 01:17:17
Перевод: Не требуется
Cубтитры: нет

Скриншоты


MediaInfo

General
Unique ID : 192447540413272055929882250331452578501 (0x90C80C4F01EDED8E871D74C827779AC5)
Complete name : F:\Новый год не наступит никогда.(2017).WEB-DLRip.(AVC).Files-x.mkv
Format : Matroska
Format version : Version 2
File size : 1.37 GiB
Duration : 1 h 17 min
Overall bit rate : 2 532 kb/s
Encoded date : UTC 2018-11-24 03:51:09
Writing application : mkvmerge v7.8.0 ('River Man') 32bit built on Apr 3 2015 12:11:22
Writing library : libebml v1.3.1 + libmatroska v1.4.2
Video
ID : 1
Format : AVC
Format/Info : Advanced Video Codec
Format profile : High@L4.1
Format settings : CABAC / 9 Ref Frames
Format settings, CABAC : Yes
Format settings, RefFrames : 9 frames
Codec ID : V_MPEG4/ISO/AVC
Duration : 1 h 17 min
Bit rate : 2 339 kb/s
Width : 1 024 pixels
Height : 576 pixels
Display aspect ratio : 16:9
Frame rate mode : Constant
Frame rate : 25.000 FPS
Color space : YUV
Chroma subsampling : 4:2:0
Bit depth : 8 bits
Scan type : Progressive
Bits/(Pixel*Frame) : 0.159
Stream size : 1.24 GiB (90%)
Writing library : x264 core 146 r2538 121396c
Encoding settings : cabac=1 / ref=9 / deblock=1:-2:-1 / analyse=0x3:0x133 / me=umh / subme=9 / psy=1 / psy_rd=1.00:0.15 / mixed_ref=1 / me_range=32 / chroma_me=1 / trellis=2 / 8x8dct=1 / cqm=0 / deadzone=21,11 / fast_pskip=0 / chroma_qp_offset=-3 / threads=18 / lookahead_threads=3 / sliced_threads=0 / nr=0 / decimate=1 / interlaced=0 / bluray_compat=0 / constrained_intra=0 / bframes=9 / b_pyramid=2 / b_adapt=2 / b_bias=0 / direct=3 / weightb=1 / open_gop=0 / weightp=2 / keyint=250 / keyint_min=25 / scenecut=40 / intra_refresh=0 / rc=2pass / mbtree=0 / bitrate=2339 / ratetol=1.0 / qcomp=0.60 / qpmin=0 / qpmax=69 / qpstep=4 / cplxblur=20.0 / qblur=0.5 / ip_ratio=1.40 / pb_ratio=1.30 / aq=2:1.00
Default : Yes
Forced : No
Color range : Limited
Color primaries : BT.709
Transfer characteristics : BT.709
Matrix coefficients : BT.709
Audio
ID : 2
Format : AC-3
Format/Info : Audio Coding 3
Format settings, Endianness : Big
Codec ID : A_AC3
Duration : 1 h 17 min
Bit rate mode : Constant
Bit rate : 192 kb/s
Channel(s) : 2 channels
Channel positions : Front: L R
Sampling rate : 44.1 kHz
Frame rate : 28.711 FPS (1536 SPF)
Bit depth : 16 bits
Compression mode : Lossy
Stream size : 106 MiB (8%)
Service kind : Complete Main
Default : Yes
Forced : No
Релиз от:[url=http://fastpic.ru/]
[Profile] [PM]
Display posts:    
Reply to topic

Current time is: 23-May 21:03

All times are UTC + 3



You cannot post new topics in this forum
You cannot reply to topics in this forum
You cannot edit your posts in this forum
You cannot delete your posts in this forum
You cannot vote in polls in this forum
You cannot attach files in this forum
You cannot download files in this forum