Джокер. Охота на зверя [3 сезон: 1-4 серии из 4] (2018) HDTVRip от Files-x

Ответить на тему
 
Автор Сообщение

Nicodem ®

Пол: Мужской

Стаж: 3 месяца

Сообщений: 173

Создавать темы 17-Ноя-2018 15:13

[Цитировать]

Джокер. Охота на зверя
Год выпуска: 2018
Жанр: Боевик
Выпущено: Россия, Кинокомпания "BERG SOUND"
Режиссер: Михаил Погосов
В ролях: Дмитрий Клепацкий, Юрий Кормушин, Олег Шкловский, Татьяна Храмова, Игорь Савочкин, Евгений Березовский, Александр Борисов, Евгений Осокин, Игорь Жижикин, Дмитрий Блажко, Сергей Легостаев, Игорь Филиппов, Алексей Ушаков, Дмитрий Ким, Саят Абаджян, Марианна Васильева, Алексей Аптовцев, Анатолий Котёнев, Ирина Рудоминская, Олег Лебедев, Сергей Погосов (II), Анна Невская, Эмилия Погосова, Илья Сазыкин, Станислав Эрклиевский, Сергей Дорофеев
О фильме: Артур «Джокер» Королёв — бывший сотрудник спецслужб. Обстоятельства вынуждают его вернуться в строй, сделав всё возможное для помощи старым друзьям. Джокеру предстоит избавить провинциальный город от власти мэра-коррупционера, который погряз в связях с криминальными организациями.
Качество: HDTVRip
Видео: XviD, ~ 1759 Кбит/с, 720x400, 25 Кадр/с
Аудио: AC3, 2 ch, 192 Кбит/с
Продолжительность: 4 х 00:49:00
Перевод: Не требуется
Cубтитры: нет

Отчет МедиаИнфо

Общее
Полное имя : C:\Users\DOM\Downloads\Джокер.s03.Охота на зверя.2018.HDTVRip.by.Nicodem.Files-x\Джокер.s03.Охота на зверя.E01.2018.HDTVRip.by.Nicodem.Files-x.avi
Формат : AVI
Формат/Информация : Audio Video Interleave
Размер файла : 699 Мбайт
Продолжительность : 49 м.
Общий поток : 1961 Кбит/сек
Программа кодирования : VirtualDubMod 1.5.10.3 | www.virtualdub-fr.org || (build 2550/release)
Библиотека кодирования : VirtualDubMod build 2550/release
Видео
Идентификатор : 0
Формат : MPEG-4 Visual
Профиль формата : Advanced Simple@L5
Параметр BVOP формата : 1
Параметр QPel формата : Нет
Параметр GMC формата : Без точки перехода
Параметр матрицы формата : Выборочная
Идентификатор кодека : XVID
Идентификатор кодека/Подсказка : XviD
Продолжительность : 49 м.
Битрейт : 1759 Кбит/сек
Ширина : 720 пикс.
Высота : 400 пикс.
Соотношение сторон : 16:9
Частота кадров : 25,000 кадр/сек
Цветовое пространство : YUV
Подвыборка цветности : 4:2:0
Битовая глубина : 8 бит
Тип развёртки : Прогрессивная
Метод сжатия : С потерями
Бит/(Пиксели*Кадры) : 0.244
Размер потока : 627 Мбайт (90%)
Библиотека кодирования : XviD 73
Аудио
Идентификатор : 1
Формат : AC-3
Формат/Информация : Audio Coding 3
Расширение режима : CM (complete main)
Идентификатор кодека : 2000
Продолжительность : 49 м.
Вид битрейта : Постоянный
Битрейт : 192 Кбит/сек
Каналы : 2 канала
Расположение каналов : Front: L R
Частота : 48,0 КГц
Битовая глубина : 16 бит
Метод сжатия : С потерями
Размер потока : 68,4 Мбайт (10%)
Выравнивание : Разделение по промежуткам
Продолжительность промежутка : 40 мс. (1,00 видеокадр)
Время предзагрузки промежутка : 500 ms
Релиз от:

Релиз подготовлен R.G.Files-x

[Профиль] [ЛС]
Показать сообщения:    
Ответить на тему

Текущее время: 17-Фев 19:56

Часовой пояс: UTC + 3



Вы не можете начинать темы
Вы не можете отвечать на сообщения
Вы не можете редактировать свои сообщения
Вы не можете удалять свои сообщения
Вы не можете голосовать в опросах
Вы не можете прикреплять файлы к сообщениям
Вы не можете скачивать файлы