Синичка [1 сезон: 1-4 серии из 4] (2018) WEB-DLRip от GeneralFilm

Reply to topic
 
Author Message

vsobbol ®

Gender: Male

Longevity: 11 months 4 days

Posts: 307

Location: Донецк

Post 25-Nov-2018 10:01

[Quote]

Синичка
Год выпуска: 2018
Жанр: Детектив
Выпущено: Россия, Марс Медиа
Режиссер: Илья Казанков
В ролях: Глафира Тарханова, Сергей Губанов, Евгения Ярушникова, Аристарх Ливанов, Алексей Демидов, Сергей Стёпин, Александр Никольский (II), Михаил Коновалов, Алеся Гузько, Вера Тарасова (II)
О фильме: В жизни 32-летней Ульяны Синицыной, сотрудницы кафедры общей психологии психфака МГУ, есть только наука. Главное ее достижение – разработка уникального метода психодиагностики на основе спонтанных рисунков людей. Только на кафедре ее тест не признают и не допускают к защите докторской. Ульяна не сдается и, желая опробовать свое изобретение на практике, устраивается в полицию штатным психологом. В качестве консультанта ее приставляют к экстравагантному следователю Игорю Левину, который является полной противоположностью Синицыной и, естественно, не верит в ее ноу-хау. Но Ульяна готова доказать, что ее метод работает, даже ценой собственной жизни.

Качество: WEB-DLRip
Видео: XviD build 73, 720x400 (16:9), 25.000 fps, ~ 1575 Kbps (~ 0.220 bit/pixel)
Аудио: 48.0 kHz, AC3, 2/0 ch, 192 kbps
Продолжительность: 4 x ~ 00:44:00
Перевод: Не требуется
Cубтитры: нет

Скриншоты

MediaInfo

General
Complete name : D:\Razdachi\Sinichka.2018.XviD.WEB-DLRip.GeneralFilm\Sinichka.e01.avi
Format : AVI
Format/Info : Audio Video Interleave
File size : 557 MiB
Duration : 43 min 49 s
Overall bit rate : 1 777 kb/s
Writing application : VirtualDubMod 1.5.10.3 | www.virtualdub-fr.org || (build 2550/release)
Writing library : VirtualDubMod build 2550/release
Video
ID : 0
Format : MPEG-4 Visual
Format profile : Advanced Simple@L5
Format settings, BVOP : 1
Format settings, QPel : No
Format settings, GMC : No warppoints
Format settings, Matrix : Custom
Codec ID : XVID
Codec ID/Hint : XviD
Duration : 43 min 49 s
Bit rate : 1 575 kb/s
Width : 720 pixels
Height : 400 pixels
Display aspect ratio : 16:9
Frame rate : 25.000 FPS
Color space : YUV
Chroma subsampling : 4:2:0
Bit depth : 8 bits
Scan type : Progressive
Compression mode : Lossy
Bits/(Pixel*Frame) : 0.219
Stream size : 494 MiB (89%)
Writing library : XviD 73
Audio
ID : 1
Format : AC-3
Format/Info : Audio Coding 3
Format settings, Endianness : Big
Codec ID : 2000
Duration : 43 min 49 s
Bit rate mode : Constant
Bit rate : 192 kb/s
Channel(s) : 2 channels
Channel positions : Front: L R
Sampling rate : 48.0 kHz
Frame rate : 31.250 FPS (1536 SPF)
Bit depth : 16 bits
Compression mode : Lossy
Stream size : 60.2 MiB (11%)
Alignment : Split accross interleaves
Interleave, duration : 40 ms (1.00 video frame)
Interleave, preload duratio : 500 ms
Service kind : Complete Main
Релиз от:
[Profile] [PM]
Display posts:    
Reply to topic

Current time is: 20-Oct 18:34

All times are UTC + 3



You cannot post new topics in this forum
You cannot reply to topics in this forum
You cannot edit your posts in this forum
You cannot delete your posts in this forum
You cannot vote in polls in this forum
You cannot attach files in this forum
You cannot download files in this forum