Родственные связи [1-4 серии из 4] (2018) DVB от Files-x

Reply to topic
 
Author Message

Nicodem ®

Gender: Male

Longevity: 6 months 7 days

Posts: 178

Post 25-Nov-2018 13:20

[Quote]

Родственные связи
Год выпуска: 2018
Жанр: Мелодрама
Выпущено: Россия, Украина, Кинокомпания "Star Media"
Режиссер: Владимир Харченко-Куликовский
В ролях: Ольга Арнтгольц, Сергей Фролов, Алиса Лукшина, Олег Коркушко, Ольга Кияшко, Даниил Мирешкин
О фильме: Что может взбаламутить и поставить с ног на голову жизнь счастливой женщины, матери идеального семейства, любимой и любящей жены, талантливого руководителя преуспевающей фирмы?..Тень прошлого! В котором было нелёгкое детство в интернате и вынужденная потеря первого ребенка. Страх разоблачения и... отчаянная борьба за счастье всех близких. Путем преодоления множества ошибок и препятствий героиня приходит к пониманию истинных ценностей, среди которых родственные связи и которые сильнее времени и страха…
Качество: DVB
Видео: MPEG-2, ~ 4562 Кбит/с, 720x576@1024х576, 25 кадр/с
Аудио: МР2, 2 ch, 192 Кбит/с
Продолжительность: 4 х 00:47:00
Перевод: Не требуется
Cубтитры: Украинские

Скриншоты


MediaInfo

General
ID : 1 (0x1)
Complete name : C:\Users\DOM\Downloads\Родственные связи.(2018).DVB.Files-x\01.Родственные связи.(2018).DVB.by.Серый1779.Files-x.ts
Format : MPEG-TS
File size : 1.67 GiB
Duration : 47mn 58s
Overall bit rate : 4 979 Kbps
Video
ID : 1005 (0x3ED)
Menu ID : 3 (0x3)
Format : MPEG Video
Format version : Version 2
Format profile : Main@Main
Format settings, BVOP : Yes
Format settings, Matrix : Default
Codec ID : 2
Duration : 47mn 57s
Bit rate mode : Constant
Bit rate : 4 562 Kbps
Width : 720 pixels
Height : 576 pixels
Display aspect ratio : 16:9
Frame rate : 25.000 fps
Standard : PAL
Color space : YUV
Chroma subsampling : 4:2:0
Bit depth : 8 bits
Scan type : Interlaced
Scan order : Top Field First
Compression mode : Lossy
Bits/(Pixel*Frame) : 0.440
Stream size : 1.52 GiB (91%)
Audio
ID : 1006 (0x3EE)
Menu ID : 3 (0x3)
Format : MPEG Audio
Format version : Version 1
Format profile : Layer 2
Codec ID : 3
Duration : 47mn 57s
Bit rate mode : Constant
Bit rate : 192 Kbps
Channel(s) : 2 channels
Sampling rate : 48.0 KHz
Compression mode : Lossy
Delay relative to video : 1ms
Stream size : 65.9 MiB (4%)
Language : English
Релиз от:
[Profile] [PM]
Display posts:    
Reply to topic

Current time is: 24-May 17:11

All times are UTC + 3



You cannot post new topics in this forum
You cannot reply to topics in this forum
You cannot edit your posts in this forum
You cannot delete your posts in this forum
You cannot vote in polls in this forum
You cannot attach files in this forum
You cannot download files in this forum