Скорая помощь [1-20 серии из 20] (2018) WEBRip от Files-x

Reply to topic
 
Author Message

bond74 ®

Gender: Male

Longevity: 8 months 7 days

Posts: 553

Post 25-Nov-2018 13:24

[Quote]

Скорая помощь Год выпуска: 2018
Жанр: Драма
Выпущено: Россия, НТВ
Режиссер: Богдан Дробязко
В ролях: Гоша Куценко, Марина Доможирова, Александр Тютин, Пётр Баранчеев, Олег Тактаров, Екатерина Волкова (I), Александра Мельник, Александр Сергеев (IV), Дмитрий Янышевский, Александр Никольский (II), Анастасия Моргун, Дмитрий Родонов, Дмитрий Калистратов, Наталья Фенкина, Елена Ковальчук, Алексей Смирнов (X), Александр Загоскин (II), Максим Деричев, Сергей Кириченко
О фильме: Работа на «Скорой» для врача тяжела не только физически, но и морально – ведь он всегда в ответе за жизни людей и за решения, которые приходится принимать за считанные секунды. Когда перед Константином Кулыгиным встает дилемма – кого из двух пациентов после аварии реанимировать в первую очередь, он делает свой выбор, в результате которого пострадавшая девушка спасена, но оказать помощь сыну губернатора Константин уже не успевает… Сегодня, лишенный права на медицинскую деятельность, Кулыгин готов работать кем угодно, чтобы продолжать помогать людям. Таким образом, на московской станции «Скорой помощи» появляется новый водитель, своими знаниями и практическими навыками способный дать сто очков вперед многим местным специалистам…

Качество: WEBRip
Видео: XviD, ~ 1700 Кбит/с, 720x400, 25 кадр/с
Аудио: AC3, 2 ch, 192 Кбит/с
Продолжительность: 20 х ~ 00:48:00
Перевод: Не требуется

Скриншоты

MediaInfo

General
General
Complete name : D:\Skoraya.pomoshch (2018) .WEB-DLRip.Files-x\01.Skoraya.pomoshch.WEB-DLRip.Files-x.avi
Format : AVI
Format/Info : Audio Video Interleave
File size : 659 MiB
Duration : 48 min 22 s
Overall bit rate : 1 905 kb/s
Writing application : VirtualDubMod 1.5.10.3 | www.virtualdub-fr.org || (build 2550/release)
Writing library : VirtualDubMod build 2550/release
Video
ID : 0
Format : MPEG-4 Visual
Format profile : Advanced Simple@L5
Format settings : BVOP1 / Custom Matrix
Format settings, BVOP : 1
Format settings, QPel : No
Format settings, GMC : No warppoints
Format settings, Matrix : Custom
Codec ID : XVID
Codec ID/Hint : XviD
Duration : 48 min 22 s
Bit rate : 1 704 kb/s
Width : 720 pixels
Height : 400 pixels
Display aspect ratio : 16:9
Frame rate : 25.000 FPS
Color space : YUV
Chroma subsampling : 4:2:0
Bit depth : 8 bits
Scan type : Progressive
Compression mode : Lossy
Bits/(Pixel*Frame) : 0.237
Stream size : 590 MiB (89%)
Writing library : XviD 73
Audio
ID : 1
Format : AC-3
Format/Info : Audio Coding 3
Codec ID : 2000
Duration : 48 min 22 s
Bit rate mode : Constant
Bit rate : 192 kb/s
Channel(s) : 2 channels
Channel positions : Front: L R
Sampling rate : 48.0 kHz
Frame rate : 31.250 FPS (1536 SPF)
Bit depth : 16 bits
Compression mode : Lossy
Stream size : 66.4 MiB (10%)
Alignment : Split accross interleaves
Interleave, duration : 40 ms (1.00 video frame)
Interleave, preload duratio : 500 ms
Service kind : Complete Main
Релиз от:
[Profile] [PM]
Display posts:    
Reply to topic

Current time is: 22-Jul 05:48

All times are UTC + 3



You cannot post new topics in this forum
You cannot reply to topics in this forum
You cannot edit your posts in this forum
You cannot delete your posts in this forum
You cannot vote in polls in this forum
You cannot attach files in this forum
You cannot download files in this forum