Фитнес [1-20 серии из 20] (2018) WEBRip 720p от Files-x

Ответить на тему
 
Автор Сообщение

bond74 ®

Пол: Мужской

Стаж: 4 месяца 4 дня

Сообщений: 265

Создавать темы 25-Ноя-2018 13:42

[Цитировать]

Фитнес Год выпуска: 2018
Жанр: Комедия
Выпущено: Россия, Yellow, Black and White
Режиссер: Антон Маслов
В ролях: Софья Зайка, Михаил Трухин, Татьяна Храмова (II), Роман Курцын, Алексей Демидов, Борис Дергачев, Марианна Шульц, Ольга Баранова, Анна Лауренская, Татьяна Сомова, Мария Малиновская, Александр Семчев, Данила Якушев, Евгений Михеев, Дмитрий Чеботарёв, Елизавета Мартинес, Ирина Бякова, Андрей Пынзару
О фильме:«Быстрее, выше, сильнее»… В мире Аси такому девизу не место. Так же, как и комплексам из-за лишнего веса. Тем более, есть дела поважнее – подготовка к свадьбе в самом разгаре. Беспечный мир Аси рушится в одну секунду: девушка узнает, что любимого давно не устраивает ее фигура. А лучшие подруги не стесняются злословить о пышных формах за ее спиной. Восстанавливать веру в себя Ася отправляется в спортклуб. Вот только тренировки и программа по снижению веса оказываются не по карману начинающей спортсменке. Выход один – стать сотрудником фитнеса и заниматься бесплатно. Так у Аси появляется новая работа, знакомства и, главное, стимул доказать подругам, бывшему и всему миру, что «невозможное возможно».

Качество: WEBRip 720p
Видео: MPEG-4 AVC, ~ 2 911 Кбит/с, 1280x720, 23.976 кадр/с
Аудио: AC3, 2 ch, 192 Кбит/с
Продолжительность: 20 х ~ 00:26:00
Перевод: Не требуется

Скриншоты

MediaInfo

General
General
Unique ID : 249332708541949273786525676060482965194 (0xBB93BBA295F31DB4AB3D482EFAAB8ECA)
Complete name : H:\Fitnes (2018) WEB-DL 720p. Files-x\05. Fitnes.2018.WEB-DL 720p. Files-x.mkv
Format : Matroska
File size : 551 MiB
Duration : 24mn 19s
Overall bit rate : 3 166 Kbps
Encoded date : UTC 2018-10-22 09:25:21
Writing application : mkvmerge v7.8.0 ('River Man') 32bit built on Apr 3 2015 12:11:22
Writing library : libebml v1.3.1 + libmatroska v1.4.2
Video
ID : 1
Format : AVC
Format/Info : Advanced Video Codec
Format profile : High@L3.1
Format settings, CABAC : Yes
Format settings, ReFrames : 4 frames
Format settings, GOP : M=2, N=15
Codec ID : V_MPEG4/ISO/AVC
Duration : 24mn 19s
Bit rate : 2 911 Kbps
Width : 1 280 pixels
Height : 720 pixels
Display aspect ratio : 16:9
Frame rate mode : Variable
Frame rate : 23.976 fps
Color space : YUV
Chroma subsampling : 4:2:0
Bit depth : 8 bits
Scan type : Progressive
Bits/(Pixel*Frame) : 0.132
Stream size : 506 MiB (92%)
Audio
ID : 2
Format : AC-3
Format/Info : Audio Coding 3
Mode extension : CM (complete main)
Codec ID : A_AC3
Duration : 24mn 19s
Bit rate mode : Constant
Bit rate : 192 Kbps
Channel(s) : 2 channels
Channel positions : Front: L R
Sampling rate : 48.0 KHz
Bit depth : 16 bits
Compression mode : Lossy
Stream size : 33.4 MiB (6%)
Релиз от:

Релиз подготовлен R.G.Files-x

[Профиль] [ЛС]

papa1951deda

Пол: Мужской

Стаж: 3 месяца 28 дней

Сообщений: 199

Откуда: Казахстан

Создавать темы 25-Ноя-2018 14:08 (спустя 25 минут)

[Цитировать]

Отлично, пойдёт
[Профиль] [ЛС]
Показать сообщения:    
Ответить на тему

Текущее время: 19-Мар 05:35

Часовой пояс: UTC + 3



Вы не можете начинать темы
Вы не можете отвечать на сообщения
Вы не можете редактировать свои сообщения
Вы не можете удалять свои сообщения
Вы не можете голосовать в опросах
Вы не можете прикреплять файлы к сообщениям
Вы не можете скачивать файлы