Годунов [1-8 серии из 16] (2018) HDTVRip от Files-x

Reply to topic
 
Author Message

bond74 ®

Gender: Male

Longevity: 11 months

Posts: 682

Post 25-Nov-2018 13:55

[Quote]

Годунов Год выпуска: 2018
Жанр: Драма, история
Выпущено: Россия, Главкино
Режиссер: Алексей Андрианов, Тимур Алпатов
В ролях: Сергей Безруков, Светлана Ходченкова, Сергей Маковецкий, Виктор Сухоруков, Александр Устюгов, Мария Андреева, Андрей Мерзликин, Анна Михалкова, Фёдор Лавров, Владимир Стеклов, Ирина Пегова, Антон Кузнецов, Анна Ковальчук, Александр Горбатов (II), Евгений Цыганов, Александр Ильин ст., Юрий Беляев, Лев Прыгунов, Артём Алексеев (II), Александр Семчев, Евгений Ткачук, Борис Плотников, Сергей Никоненко, Станислав Говорухин, Юрий Колокольников, Екатерина Васильева (II), Диана Чечель, Юрий Коноплянников, Клим Бердинский, Лев Бердинский, Владимир Скробан, Ярослав Ефременко, Андрюс Паулавичюс, Вайдотас Мартинайтис, Ремигиюс Сабулис, Лаймутис Седжюс, Альбинас Келярис, Александр Пашутин, Николай Козак
О фильме: XVI век. Один из самых сложных и противоречивых периодов в истории страны. Тревожная и героическая эпоха Российского царства. Борьба за трон и неразделенная любовь, предательство и интриги, страсти и испытания эпохи – ставка в которой больше, чем жизнь. На кону – будущее Российского государства. В основе сериала реальные исторические события, охватывающие период со времен окончания правления Ивана Грозного и до восшествия на русский престол Михаила Федоровича Романова – первого царя из династии Романовых. В центре беспрецедентного исторического проекта – судьба рода Годуновых. Какую роль сыграют в этой драме сам Борис Годунов, его жена Мария Годунова, сестра Ирина и дочь Ксения, зрителям только предстоит узнать. Впереди – настоящие открытия! В Московском Кремле начинается отсчет последних дней правления Иоанна Грозного. Кто займет место на царском троне, как сложится судьба целого народа, кто способен провести Россию через Смутное время, и как любовь изменяет путь истории. Борис Годунов – бывший опричник и первый на Руси избранный царь. Как и почему, не будучи выходцем из знатного рода и не имея особого состояния, он смог пробиться на самый верх и стать сначала фактическим правителем России, а затем взойти на царский престол…

Качество: HDTVRip
Видео: XviD, ~ 1500 Кбит/с, 720x400, 25 кадр/с
Аудио: AC3, 2 ch, 192 Кбит/с
Продолжительность: 8 х ~ 00:50:00
Перевод: Не требуется

Скриншоты

MediaInfo

General
General
Complete name : H:\Годунов.2018.HDTVRip.Files-x\01.Годунов.2018.HDTVRip.Files-x.avi
Format : AVI
Format/Info : Audio Video Interleave
File size : 613 MiB
Duration : 50mn 27s
Overall bit rate : 1 700 Kbps
Writing application : VirtualDubMod 1.5.10.3 | www.virtualdub-fr.org || (build 2550/release)
Writing library : VirtualDubMod build 2550/release
Video
ID : 0
Format : MPEG-4 Visual
Format profile : Advanced Simple@L5
Format settings, BVOP : 1
Format settings, QPel : No
Format settings, GMC : No warppoints
Format settings, Matrix : Custom
Codec ID : XVID
Codec ID/Hint : XviD
Duration : 50mn 27s
Bit rate : 1 498 Kbps
Width : 720 pixels
Height : 400 pixels
Display aspect ratio : 16:9
Frame rate : 25.000 fps
Color space : YUV
Chroma subsampling : 4:2:0
Bit depth : 8 bits
Scan type : Progressive
Compression mode : Lossy
Bits/(Pixel*Frame) : 0.208
Stream size : 540 MiB (88%)
Writing library : XviD 73
Audio
ID : 1
Format : AC-3
Format/Info : Audio Coding 3
Mode extension : CM (complete main)
Codec ID : 2000
Duration : 50mn 27s
Bit rate mode : Constant
Bit rate : 192 Kbps
Channel(s) : 2 channels
Channel positions : Front: L R
Sampling rate : 48.0 KHz
Bit depth : 16 bits
Compression mode : Lossy
Stream size : 69.3 MiB (11%)
Alignment : Split accross interleaves
Interleave, duration : 40 ms (1.00 video frame)
Interleave, preload duration : 500 ms
Релиз от:
[Profile] [PM]
Display posts:    
Reply to topic

Current time is: 14-Nov 13:09

All times are UTC + 3



You cannot post new topics in this forum
You cannot reply to topics in this forum
You cannot edit your posts in this forum
You cannot delete your posts in this forum
You cannot vote in polls in this forum
You cannot attach files in this forum
You cannot download files in this forum