Плата за спасение [1-4 серии из 4] (2018) SATRip от Files-x

Reply to topic
 
Author Message

Nicodem ®

Gender: Male

Longevity: 8 months 5 days

Posts: 178

Post 25-Nov-2018 14:00

[Quote]

Плата за спасение
Год выпуска: 2018
Жанр: Остросюжетная мелодрама
Выпущено: Россия, Украина, Киевтелефильм, Armada FILMS
Режиссер: Валерий Ибрагимов
В ролях: Ирина Таранник, Анатолий Руденко, Эдуард Флёров, Регина Мянник, Алексей Смолка, Людмила Нильская, Заза Чантурия
О фильме: Жизнь Ксении Гальпериной казалась счастливой и спланированной на годы вперед. Она – главный врач клиники. Перед ней открываются прекрасные перспективы: успешная карьера, финансовое благосостояние, рождение ребенка от любимого мужчины… Однажды в клинику привозят пострадавших после автокатастрофы. С этого начинается цепочка ужасных событий в жизни героини. В результате Ксения остается без работы, без денег и без ребенка. А новая любовь, возникшая внезапно, казалось бы, должна привнести в жизнь Ксении радость новых отношений. Но все оказывается лишь искусно созданным миром, призванным сломать и уничтожить ее саму и все, что ей дорого…
Качество: SATRip
Видео: XviD, ~ 1746 Кбит/с, 720x400, 25 кадр/с
Аудио: AC3, 2 ch, 192 Кбит/с
Продолжительность: 4 х 00:50:00
Перевод: Не требуется
Cубтитры: Украинские

Скриншоты



MediaInfo

General
Complete name : C:\Users\DOM\Downloads\Плата за спасение.2018.SATRip.Files-x\01.Плата за спасение.2018.SATRip.Files-x.avi
Format : AVI
Format/Info : Audio Video Interleave
File size : 698 MiB
Duration : 50mn 4s
Overall bit rate : 1 948 Kbps
Writing application : VirtualDubMod 1.5.10.3 | www.virtualdub-fr.org || (build 2550/release)
Writing library : VirtualDubMod build 2550/release
Video
ID : 0
Format : MPEG-4 Visual
Format profile : Advanced Simple@L5
Format settings, BVOP : 1
Format settings, QPel : No
Format settings, GMC : No warppoints
Format settings, Matrix : Custom
Codec ID : XVID
Codec ID/Hint : XviD
Duration : 50mn 4s
Bit rate : 1 746 Kbps
Width : 720 pixels
Height : 400 pixels
Display aspect ratio : 16:9
Frame rate : 25.000 fps
Color space : YUV
Chroma subsampling : 4:2:0
Bit depth : 8 bits
Scan type : Progressive
Compression mode : Lossy
Bits/(Pixel*Frame) : 0.243
Stream size : 625 MiB (90%)
Writing library : XviD 73
Audio
ID : 1
Format : AC-3
Format/Info : Audio Coding 3
Mode extension : CM (complete main)
Codec ID : 2000
Duration : 50mn 4s
Bit rate mode : Constant
Bit rate : 192 Kbps
Channel(s) : 2 channels
Channel positions : Front: L R
Sampling rate : 48.0 KHz
Bit depth : 16 bits
Compression mode : Lossy
Stream size : 68.8 MiB (10%)
Alignment : Split accross interleaves
Interleave, duration : 40 ms (1.00 video frame)
Interleave, preload duration : 500 ms
Релиз от:
[Profile] [PM]
Display posts:    
Reply to topic

Current time is: 22-Jul 22:34

All times are UTC + 3



You cannot post new topics in this forum
You cannot reply to topics in this forum
You cannot edit your posts in this forum
You cannot delete your posts in this forum
You cannot vote in polls in this forum
You cannot attach files in this forum
You cannot download files in this forum