Динозавр [1-10 серии из 10] (2018) WEBRip от Files-x

Ответить на тему
 
Автор Сообщение

bond74 ®

Пол: Мужской

Стаж: 4 месяца 4 дня

Сообщений: 265

Создавать темы 25-Ноя-2018 14:05

[Цитировать]

Динозавр Год выпуска: 2018
Жанр: Криминал, мелодрама
Выпущено: Россия, Продюсерский центр Сергея Жигунова
Режиссер: Евгений Серов, Всеволод Аравин, Олег Компасов
В ролях: Андрей Смирнов (I), Александр Панкратов-Чёрный, Евгений Миллер, Анна Васильева (I), Максим Литовченко, Михаил Евланов, Ольга Тумайкина, Илья Любимов, Сергей Епишев, Александр Берда, Илья Ильин, Роман Полянский, Александра Мареева, Ольга Филиппова, Юрий Чурсин, Елена Сафонова, Геннадий Яковлев, Сергей Жигунов, Валерий Новиков, Александр Вдовин, Юрий Сысоев (I), Светлана Немоляева, Галина Петрова, Борис Смолкин, Борис Невзоров, Иван Лакшин, Борис Токарев (I), Сергей Сосновский, Михаил Горский
О фильме: Престарелый криминальный авторитет Семен Тимофеевич Бабушкин, о чьем воровском таланте в свое время слагали легенды, последние 35 лет не выходил из тюрьмы, предпочитая ее свободе, где у него не осталось ни друзей, ни родных. Но однажды Бабушкин получает письмо, из которого узнает, что у него, оказывается, все-таки есть на воле кровиночка, сын Слава. По иронии судьбы, младший Бабушкин служит следователем в органах, но в настоящее время нуждается в помощи - его серьезно подставили, и под угрозой оказалась не только его жизнь, но и безопасность его дочери. Тогда благородный бандит принимается налаживать свои старые связи и навыки, чтобы вытащить новоявленную семью из беды.
Качество: WEBRip
Видео: XviD, ~ 1500 Кбит/с, 720x400, 25 кадр/с
Аудио: AC3, 2 ch, 192 Кбит/с
Продолжительность: 10 х ~ 00:46:00
Перевод: Не требуется

Скриншоты

MediaInfo

General
General
Complete name : Downloads\Динозавр .2018.WEB-DLRip.Files-x\01.Динозавр .2018.WEB-DLRip.Files-x.avi
Format : AVI
Format/Info : Audio Video Interleave
File size : 570 MiB
Duration : 47mn 10s
Overall bit rate : 1 690 Kbps
Writing application : VirtualDubMod 1.5.10.3 | www.virtualdub-fr.org || (build 2550/release)
Writing library : VirtualDubMod build 2550/release
Video #0
ID : 0
Format : MPEG-4 Visual
Format profile : Advanced Simple@L5
Format settings, BVOP : 1
Format settings, QPel : No
Format settings, GMC : No warppoints
Format settings, Matrix : Custom
Codec ID : XVID
Codec ID/Hint : XviD
Duration : 47mn 10s
Bit rate : 1 488 Kbps
Width : 720 pixels
Height : 400 pixels
Display aspect ratio : 16:9
Frame rate : 25.000 fps
Color space : YUV
Chroma subsampling : 4:2:0
Bit depth : 8 bits
Scan type : Progressive
Compression mode : Lossy
Bits/(Pixel*Frame) : 0.207
Stream size : 502 MiB (88%)
Writing library : XviD 73
Audio #1
ID : 1
Format : AC-3
Format/Info : Audio Coding 3
Mode extension : CM (complete main)
Format settings, Endianness : Big
Codec ID : 2000
Duration : 47mn 10s
Bit rate mode : Constant
Bit rate : 192 Kbps
Channel(s) : 2 channels
Channel positions : Front: L R
Sampling rate : 48.0 KHz
Bit depth : 16 bits
Compression mode : Lossy
Stream size : 64.8 MiB (11%)
Alignment : Split accross interleaves
Interleave, duration : 40 ms (1.00 video frame)
Interleave, preload duration : 500 ms
Релиз от:

Релиз подготовлен R.G.Files-x



Последний раз редактировалось: bond74 (2018-11-25 22:53), всего редактировалось 4 раз(а)
[Профиль] [ЛС]
Показать сообщения:    
Ответить на тему

Текущее время: 19-Мар 05:30

Часовой пояс: UTC + 3



Вы не можете начинать темы
Вы не можете отвечать на сообщения
Вы не можете редактировать свои сообщения
Вы не можете удалять свои сообщения
Вы не можете голосовать в опросах
Вы не можете прикреплять файлы к сообщениям
Вы не можете скачивать файлы