День расплаты [1-4 серии из 4] (2017) WEB-DLRip от Files-x

Reply to topic
 
Author Message

Nicodem ®

Gender: Male

Longevity: 8 months 5 days

Posts: 178

Post 25-Nov-2018 14:27

[Quote]

День расплаты
Год выпуска: 2017
Жанр: Остросюжетная мелодрама
Выпущено: Россия, Кинокомпания "Формат"
Режиссер: Тэмо Эсадзе
В ролях: Наталья Романычева, Мила Новикова, Дмитрий Грошев, Наталья Ткаченко, Лада Чуровская, Алексей Фокин, Геннадий Смирнов, Дмитрий Сутырин, Алексей Медведев
О фильме: Это история об обычных людях, волею обстоятельств оказавшихся втянутыми в необычную, страшную историю, где человеческая жизнь перестает быть главной ценностью, где сведение личных счетов и сугубо меркантильный характер отношений диктуют ход и причинно-следственную логику событий. Три разновозрастные, ничем не непохожие и незнакомые друг с другом женщины в один день получают известие о том, что их жизни угрожает реальная опасность. Удивительно еще и то, что «письма счастья» приходят каждой из них «с того света», ибо автор, приговоривший их к казни – пенсионер-математик – умер за месяц до описываемых событий. Оказавшиеся в столь парадоксальной, почти что сюрреалистической ситуации женщины естественно ищут защиту под сенью закона. Однако распутать этот клубок будет непросто. Тем более, что каждая из героинь сделает все возможное, чтобы не только не помочь следствию, но постарается скрыть от следователя самое главное, тот самый заветный «скелет в шкафу», который заставляет долгие годы просыпаться в холодном поту и помнить о нем всю жизнь.
Качество: WEB-DLRip
Видео: XviD, ~ 1499 Кбит/с, 720х400, 25 кадр/с
Аудио: AC3, 2 ch, 192 Кбит/с
Продолжительность: 4 х 00:46:00
Перевод: Не требуется
Cубтитры: нет

Скриншоты


MediaInfo

General
Complete name : C:\Users\DOM\Downloads\День расплаты.2018.WEB-DLRip.Files-x\01..День расплаты.2018.WEB-DLRip.Files-x.avi
Format : AVI
Format/Info : Audio Video Interleave
File size : 567 MiB
Duration : 46mn 37s
Overall bit rate : 1 701 Kbps
Writing application : VirtualDubMod 1.5.10.3 | www.virtualdub-fr.org || (build 2550/release)
Writing library : VirtualDubMod build 2550/release
Video
ID : 0
Format : MPEG-4 Visual
Format profile : Advanced Simple@L5
Format settings, BVOP : 1
Format settings, QPel : No
Format settings, GMC : No warppoints
Format settings, Matrix : Custom
Codec ID : XVID
Codec ID/Hint : XviD
Duration : 46mn 37s
Bit rate : 1 499 Kbps
Width : 720 pixels
Height : 400 pixels
Display aspect ratio : 16:9
Frame rate : 25.000 fps
Color space : YUV
Chroma subsampling : 4:2:0
Bit depth : 8 bits
Scan type : Progressive
Compression mode : Lossy
Bits/(Pixel*Frame) : 0.208
Stream size : 500 MiB (88%)
Writing library : XviD 73
Audio
ID : 1
Format : AC-3
Format/Info : Audio Coding 3
Mode extension : CM (complete main)
Codec ID : 2000
Duration : 46mn 37s
Bit rate mode : Constant
Bit rate : 192 Kbps
Channel(s) : 2 channels
Channel positions : Front: L R
Sampling rate : 48.0 KHz
Bit depth : 16 bits
Compression mode : Lossy
Stream size : 64.0 MiB (11%)
Alignment : Split accross interleaves
Interleave, duration : 40 ms (1.00 video frame)
Interleave, preload duration : 500 ms
Релиз от:
[Profile] [PM]
Display posts:    
Reply to topic

Current time is: 22-Jul 22:36

All times are UTC + 3



You cannot post new topics in this forum
You cannot reply to topics in this forum
You cannot edit your posts in this forum
You cannot delete your posts in this forum
You cannot vote in polls in this forum
You cannot attach files in this forum
You cannot download files in this forum