Декабристка / Жертвоприношение [1-10 серии из 10] (2017) WEBRip от Files-x

Ответить на тему
 
Автор Сообщение

bond74 ®

Пол: Мужской

Стаж: 4 месяца 7 дней

Сообщений: 267

Создавать темы 25-Ноя-2018 14:29

[Цитировать]

Декабристка / Жертвоприношение Год выпуска: 2017
Жанр: Ретродрама
Выпущено: Россия, Dixi Media
Режиссер: Ирина Гедрович
В ролях: Светлана Иванова, Дмитрий Муляр, Сергей Пускепалис, Вячеслав Манучаров, Борис Каморзин, Анатолий Гущин, Дмитрий Ячевский, Максим Карушев, Полина Сыркина, Елена Папанова, Кристина Рубан, Александр Левин (II), Юлия Калашникова, Георгий Тополага, Николай Козак, Александр Давыдов (III)
О фильме: 1950-е годы, Москва. У судебного секретаря Зинаиды Уваровой в жизни было много горя: ее муж погиб на войне, и женщина осталась одна с маленьким сыном Мишей. Теперь мальчику уже 11 лет, и Зинаида вновь хочет обрести женское счастье. Она планирует выйти замуж за адвоката Алексея Левицкого, но один донос перечеркивает и успешную адвокатскую карьеру ее возлюбленного, и предстоящую свадьбу. Алексея отправляют в ссылку на 10 лет в Иркутскую область. Зинаида, бросив все, отправляется вслед за возлюбленным. У нее нет четкого плана, но женщина знает только одно: она не может оставаться в Москве, когда ее любимый человек находится в лагере. Зина хочет добиться пересмотра дела и освобождения любимого мужчины. Фильм основан на реальных событиях.

Качество: WEBRip
Видео: XviD, ~ 1500 Кбит/с, 720x400, 25 кадр/с
Аудио: AC3, 2 ch, 192 Кбит/с
Продолжительность: 10 x ~ 00:50:00
Перевод: Не требуется

Скриншоты

MediaInfo

General
General
Complete name : D:\Декабристка (2018)..WEB-DLRip.Files-x\01.Декабристка (2018)..WEB-DLRip.Files-x.avi
Format : AVI
Format/Info : Audio Video Interleave
File size : 603 MiB
Duration : 49 min 43 s
Overall bit rate : 1 696 kb/s
Writing application : VirtualDubMod 1.5.10.3 | www.virtualdub-fr.org || (build 2550/release)
Writing library : VirtualDubMod build 2550/release
Video
ID : 0
Format : MPEG-4 Visual
Format profile : Advanced Simple@L5
Format settings : BVOP1 / Custom Matrix
Format settings, BVOP : 1
Format settings, QPel : No
Format settings, GMC : No warppoints
Format settings, Matrix : Custom
Codec ID : XVID
Codec ID/Hint : XviD
Duration : 49 min 43 s
Bit rate : 1 495 kb/s
Width : 720 pixels
Height : 400 pixels
Display aspect ratio : 16:9
Frame rate : 25.000 FPS
Color space : YUV
Chroma subsampling : 4:2:0
Bit depth : 8 bits
Scan type : Progressive
Compression mode : Lossy
Bits/(Pixel*Frame) : 0.208
Stream size : 532 MiB (88%)
Writing library : XviD 73
Audio
ID : 1
Format : AC-3
Format/Info : Audio Coding 3
Codec ID : 2000
Duration : 49 min 43 s
Bit rate mode : Constant
Bit rate : 192 kb/s
Channel(s) : 2 channels
Channel positions : Front: L R
Sampling rate : 48.0 kHz
Frame rate : 31.250 FPS (1536 SPF)
Bit depth : 16 bits
Compression mode : Lossy
Stream size : 68.3 MiB (11%)
Alignment : Split accross interleaves
Interleave, duration : 40 ms (1.00 video frame)
Interleave, preload duratio : 500 ms
Service kind : Complete Main
Релиз от:

Релиз подготовлен R.G.Files-x

[Профиль] [ЛС]
Показать сообщения:    
Ответить на тему

Текущее время: 22-Мар 10:24

Часовой пояс: UTC + 3



Вы не можете начинать темы
Вы не можете отвечать на сообщения
Вы не можете редактировать свои сообщения
Вы не можете удалять свои сообщения
Вы не можете голосовать в опросах
Вы не можете прикреплять файлы к сообщениям
Вы не можете скачивать файлы