Ивановы-Ивановы [3 сезон: 1-21 серия из 21] (2018) WEB-DLRip от Files-x

Ответить на тему
 
Автор Сообщение

bond74 ®

Пол: Мужской

Стаж: 4 месяца 10 дней

Сообщений: 271

Создавать темы 25-Ноя-2018 14:40

[Цитировать]

Ивановы-Ивановы Год выпуска: 2018
Жанр: Комедия
Выпущено: Россия, PICK UP FILM
Режиссер: Андрей Элинсон
В ролях: Сергей Бурунов, Александра Флоринская, Михаил Трухин, Анна Уколова, Семён Трескунов, Алексей Лукин, Юрий Ицков, Елена Муравьёва, Грант Тохатян, Виктория Маслова, Василина Юсковец, Игорь Хрипунов, Александр Обласов, Валерий Панков, Артём Федотов, Кристина Каширина, Мария Иващенко, Валерий Новиков, Игорь Климов, Гарик Айвазов, Николай Козак, Натали Старынкевич, Юлия Чиплиева, Александр Марушев, Андрей Шишков (II), Денис Синявский, Александр Половцев, Сергей Беляев, Юлия Подозёрова, Слава Степанян, Андрей Арзяев, Павел Ремезов, Игорь Кистол, Виталий Ходин, Игорь Кулачко
О фильме: Лёха Иванов становится главой семьи, когда выкупает фамильный особняк. Это не устраивает Антона, который этот особняк построил. В борьбе за «престол» нет запрещенных средств, и пусть придётся стрелять из лука, взрывать вертолёт и оказаться в другой эпохе.

Качество: WEB-DLRip
Видео: XviD, ~ 1500 Кбит/с, 720x400, 25 кадр/с
Аудио: AC3, 2 ch, 192 Кбит/с
Продолжительность: 21 x ~ 00:25:00
Перевод: Не требуется
Субтитры: нет

Скриншоты

MediaInfo

General
General
Complete name : H:\Ivanovy.Ivanovy.03.2018.WEB-DLRip.Files-x.Files-x\01.Ivanovy.Ivanovy.03.2018.WEB-DLRip.Files-x.avi
Format : AVI
Format/Info : Audio Video Interleave
File size : 306 MiB
Duration : 25mn 8s
Overall bit rate : 1 702 Kbps
Writing application : VirtualDubMod 1.5.10.3 | www.virtualdub-fr.org || (build 2550/release)
Writing library : VirtualDubMod build 2550/release
Video
ID : 0
Format : MPEG-4 Visual
Format profile : Advanced Simple@L5
Format settings, BVOP : 1
Format settings, QPel : No
Format settings, GMC : No warppoints
Format settings, Matrix : Custom
Codec ID : XVID
Codec ID/Hint : XviD
Duration : 25mn 8s
Bit rate : 1 500 Kbps
Width : 720 pixels
Height : 400 pixels
Display aspect ratio : 16:9
Frame rate : 25.000 fps
Color space : YUV
Chroma subsampling : 4:2:0
Bit depth : 8 bits
Scan type : Progressive
Compression mode : Lossy
Bits/(Pixel*Frame) : 0.208
Stream size : 270 MiB (88%)
Writing library : XviD 73
Audio
ID : 1
Format : AC-3
Format/Info : Audio Coding 3
Mode extension : CM (complete main)
Codec ID : 2000
Duration : 25mn 8s
Bit rate mode : Constant
Bit rate : 192 Kbps
Channel(s) : 2 channels
Channel positions : Front: L R
Sampling rate : 48.0 KHz
Bit depth : 16 bits
Compression mode : Lossy
Stream size : 34.5 MiB (11%)
Alignment : Split accross interleaves
Interleave, duration : 40 ms (1.00 video frame)
Interleave, preload duration : 500 ms
Релиз от:

Релиз подготовлен R.G.Files-x

[Профиль] [ЛС]
Показать сообщения:    
Ответить на тему

Текущее время: 25-Мар 13:54

Часовой пояс: UTC + 3



Вы не можете начинать темы
Вы не можете отвечать на сообщения
Вы не можете редактировать свои сообщения
Вы не можете удалять свои сообщения
Вы не можете голосовать в опросах
Вы не можете прикреплять файлы к сообщениям
Вы не можете скачивать файлы