Четвертая смена [1-10 серии из 10] (2017) WEBRip от Files-x

Reply to topic
 
Author Message

bond74 ®

Gender: Male

Longevity: 10 months 3 days

Posts: 633

Post 25-Nov-2018 14:52

[Quote]

Четвертая смена Год выпуска: 2017
Жанр: Боевик, криминал
Выпущено: Россия, ООО «ГПМ КИТ» совместно с ООО «Киностудия КИТ» и с ООО «ИКА ПРОДАКШН» по заказу АО «Телекомпания НТВ»
Режиссер: Алексей Быстрицкий, Степан Коршунов
В ролях: Алексей Чадов, Виктор Добронравов, София Чжоу, Гэ Ян, Янбин Ши, Александра Тулинова, Ольга Сухарева, Алексей Варущенко, Надежда Борисова, Михаил Хмуров, Евгений Харитонов (II), Сергей Чирков, Аскар Ильясов, Евгений Шибалко, Баин Бовальдинов, Сергей Галахов, Артем Башенин, Александр Ким, Лена Куо
О фильме: Они встретились в современной Москве. Один – учитель из Китая, другой – бывший сотрудник МВД, уволенный за свой неуправляемый характер. Сейчас он подрабатывает в злачных местах Москвы, где заправляют выходцы из Китая, Вьетнама и других стран дальнего зарубежья. Китайский учитель прилетает в Россию, чтобы найти свою пропавшую дочь. Он не знает ни языка, ни страны, ни законов. Ему нужен помощник, которым становится Данила. Впереди их ждет столкновение с китайским преступным синдикатом. Спокойный и рассудительный, цитирующий Лаоцзы, китайский учитель и «безбашенный», любитель русского рэпа, бывший РУБОПовец действуют спонтанно, неожиданно и не всегда логично. Они открывают для себя мир, недоступный для глаз простого москвича. Мир китайцев в Москве – это государство в государстве. Со своими законами, правилами и порядками. И если днём вся огромная армия китайских мигрантов работает на рынках, в ресторанах и своих магазинчиках, то ночью начинается совершенно другая жизнь, о которой жители столицы даже и не подозревают. Что же такое четвертая смена?

Качество: WEBRip
Видео: XviD, ~ 1610 Кбит/с, 720x304, 25 кадр/с
Аудио: AC3, 2 ch, 192 Кбит/с
Продолжительность: 10 х ~ 00:46:00
Перевод: Не требуется

Скриншоты

MediaInfo

General
Complete name : H:\Четвертая смена. (2018)\02. Chetvertaya.smena.WEB-DLRip.Files-x.avi
Format : AVI
Format/Info : Audio Video Interleave
File size : 601 MiB
Duration : 46mn 12s
Overall bit rate : 1 818 Kbps
Movie name : 43tBi0ptaya.Cm3Ha.O2.WEB-DLRip
Writing application : VirtualDubMod 1.5.10.3 | www.virtualdub-fr.org || (build 2550/release)
Comment : Medved
Video
ID : 0
Format : MPEG-4 Visual
Format profile : Advanced Simple@L5
Format settings, BVOP : 2
Format settings, QPel : No
Format settings, GMC : No warppoints
Format settings, Matrix : Default (MPEG)
Codec ID : XVID
Codec ID/Hint : XviD
Duration : 46mn 12s
Bit rate : 1 616 Kbps
Width : 720 pixels
Height : 304 pixels
Display aspect ratio : 2.35:1
Frame rate : 25.000 fps
Color space : YUV
Chroma subsampling : 4:2:0
Bit depth : 8 bits
Scan type : Progressive
Compression mode : Lossy
Bits/(Pixel*Frame) : 0.295
Stream size : 534 MiB (89%)
Writing library : XviD 1.2.1 (UTC 2008-12-04)
Audio
ID : 1
Format : AC-3
Format/Info : Audio Coding 3
Mode extension : CM (complete main)
Codec ID : 2000
Duration : 46mn 12s
Bit rate mode : Constant
Bit rate : 192 Kbps
Channel(s) : 2 channels
Channel positions : Front: L R
Sampling rate : 44.1 KHz
Bit depth : 16 bits
Compression mode : Lossy
Delay relative to video : 278ms
Stream size : 63.5 MiB (11%)
Alignment : Split accross interleaves
Interleave, duration : 40 ms (1.00 video frame)
Interleave, preload duration : 500 ms
Релиз от:


Last edited by bond74 on 2018-11-25 22:43; edited 1 time in total
[Profile] [PM]
Display posts:    
Reply to topic

Current time is: 18-Sep 04:51

All times are UTC + 3



You cannot post new topics in this forum
You cannot reply to topics in this forum
You cannot edit your posts in this forum
You cannot delete your posts in this forum
You cannot vote in polls in this forum
You cannot attach files in this forum
You cannot download files in this forum