Этим пыльным летом [1-4 серии из 4] (2018) WEB-DL 720p от Files-x

Reply to topic
 
Author Message

bond74 ®

Gender: Male

Longevity: 8 months 8 days

Posts: 555

Post 25-Nov-2018 15:43

[Quote]

Этим пыльным летом Год выпуска: 2018
Жанр: Детектив, драма
Выпущено: Россия, Студия ТелеМастер
Режиссер: Наталья Хлопецкая
В ролях: Вадим Андреев, Ольга Виниченко, Сергей Жарков, Дмитрий Калязин, Вера Воронкова, Юлия Кокрятская, Евгения Розанова, Сергей Петров (II), Сергей Галахов
О фильме: В небольшом провинциальном городе происходит убийство чиновника Ремезова, метившего на пост мэра. Все подозрения ложатся на простого таксиста Макарыча. Его разобщенные дети – сотрудник ФСБ Влад и вхожая в подпольные круги Тина – пытаются каждый по-своему выручить отца. Чем больше они погружаются в это дело, тем сильнее становится семейный разлад, взаимные подозрения и угроза пополнить список жертв. У Тины есть связи в криминальных кругах, и она смотрит на мир особым взглядом человека, который знает, что такое подпольные бои. Но ее брат Влад, как сотрудник спецслужб, не может принять взгляды сестры. На работе у Влада не все гладко: его отстраняют от расследования. При этом сам Влад, погружаясь в детали этой странной истории, начинает подозревать в нежелательных связях и самого Макарыча. А Тина, тем временем, кое-что «накопала» на брата…

Качество: WEB-DL 720p
Видео: MPEG-4 AVC, ~ 3300 Кбит/с, 1280x720, 25 кадр/с
Аудио: AC3, 2 ch, 192 Кбит/с
Продолжительность: 4 х ~ 00:46:00
Перевод: Не требуется

Скриншоты

MediaInfo

General
General
Unique ID : 212169846476368528880901275104371758720 (0x9F9E6D126E645C319A9080698ABB5680)
Complete name : H:\Еtim.pylnym.letom..2018.WEB-DL 720p. Files-x\Еtim.pylnym.letom.e02.2018.WEB-DL 720p. Files-x.mkv
Format : Matroska
File size : 1.02 GiB
Duration : 44mn 45s
Overall bit rate : 3 275 Kbps
Encoded date : UTC 2018-10-13 21:48:23
Writing application : mkvmerge v7.8.0 ('River Man') 32bit built on Apr 3 2015 12:11:22
Writing library : libebml v1.3.1 + libmatroska v1.4.2
Video
ID : 1
Format : AVC
Format/Info : Advanced Video Codec
Format profile : High@L4.1
Format settings, CABAC : Yes
Format settings, ReFrames : 4 frames
Codec ID : V_MPEG4/ISO/AVC
Duration : 44mn 45s
Bit rate mode : Constant
Bit rate : 3 017 Kbps
Nominal bit rate : 3 200 Kbps / 3 200 Kbps
Width : 1 280 pixels
Height : 720 pixels
Display aspect ratio : 16:9
Frame rate mode : Variable
Frame rate : 25.000 fps
Color space : YUV
Chroma subsampling : 4:2:0
Bit depth : 8 bits
Scan type : Progressive
Bits/(Pixel*Frame) : 0.131
Stream size : 966 MiB (92%)
Writing library : x264 core 148
Encoding settings : cabac=1 / ref=2 / deblock=1:0:0 / analyse=0x3:0x113 / me=hex / subme=6 / psy=1 / psy_rd=1.00:0.00 / mixed_ref=1 / me_range=16 / chroma_me=1 / trellis=1 / 8x8dct=1 / cqm=0 / deadzone=21,11 / fast_pskip=1 / chroma_qp_offset=-2 / threads=1 / lookahead_threads=1 / sliced_threads=0 / nr=0 / decimate=1 / interlaced=0 / bluray_compat=0 / constrained_intra=0 / bframes=3 / b_pyramid=2 / b_adapt=1 / b_bias=0 / direct=1 / weightb=1 / open_gop=0 / weightp=1 / keyint=250 / keyint_min=25 / scenecut=0 / intra_refresh=0 / rc_lookahead=30 / rc=cbr / mbtree=1 / bitrate=3200 / ratetol=1.0 / qcomp=0.60 / qpmin=0 / qpmax=69 / qpstep=4 / vbv_maxrate=3200 / vbv_bufsize=1600 / nal_hrd=cbr / filler=1 / ip_ratio=1.40 / aq=1:1.00
Audio
ID : 2
Format : AC-3
Format/Info : Audio Coding 3
Mode extension : CM (complete main)
Codec ID : A_AC3
Duration : 44mn 45s
Bit rate mode : Constant
Bit rate : 192 Kbps
Channel(s) : 2 channels
Channel positions : Front: L R
Sampling rate : 48.0 KHz
Bit depth : 16 bits
Compression mode : Lossy
Delay relative to video : -61ms
Stream size : 61.5 MiB (6%)
Релиз от:


Last edited by bond74 on 2018-11-25 23:26; edited 2 times in total
[Profile] [PM]
Display posts:    
Reply to topic

Current time is: 23-Jul 11:48

All times are UTC + 3



You cannot post new topics in this forum
You cannot reply to topics in this forum
You cannot edit your posts in this forum
You cannot delete your posts in this forum
You cannot vote in polls in this forum
You cannot attach files in this forum
You cannot download files in this forum