Квартирник у Маргулиса Сергей Бобунец [эфир 18.11] (2018) HDTV 1080i

Reply to topic
 
Author Message

Мухич ®

Gender: Male

Longevity: 6 months 26 days

Posts: 53

Post 25-Nov-2018 16:18

[Quote]

Квартирник у Маргулиса
Год выпуска: 2018
Жанр: Концерт
Выпущено: Россия, Телеканал НТВ HD
Ведущий: Евгений Маргулис
О фильме: "Квартирник" — это необычный формат, подкупающий неформальностью и живой творческой атмосферой. В гости к Евгению Маргулису приходят известные музыканты и камерно, под гитару, исполняют свои лучшие песни и новые композиции. Если раньше о том, кто придет в студию, зрители узнавали заранее, то теперь интрига сохранится вплоть до самого эфира и сделает квартирник еще более закрытым мероприятием для настоящих ценителей хорошей музыки

Качество: HDTV 1080i
Видео: MPEG-4 AVC, 7205 Кбит/с, 1920x1080
Аудио: MP2, 2 ch, 192 Кбит/с
Продолжительность: ~ 00:51:00
Перевод: Не требуется

Скриншоты

MediaInfo

General
ID : 1 (0x1)
Complete name : F:\Behold TV 222\Квартирник НТВ у Маргулиса. Сергей Бобунец Смысловые галлюцинации. 2018.11.18.ts
Format : MPEG-TS
File size : 2.86 GiB
Duration : 52 min 34 s
Overall bit rate mode : Variable
Overall bit rate : 7 783 kb/s
Video
ID : 1004 (0x3EC)
Menu ID : 304 (0x130)
Format : AVC
Format/Info : Advanced Video Codec
Format profile : High@L4
Format settings : CABAC / 4 Ref Frames
Format settings, CABAC : Yes
Format settings, ReFrames : 4 frames
Format settings, GOP : M=3, N=24
Codec ID : 27
Duration : 52 min 34 s
Bit rate : 7 205 kb/s
Width : 1 920 pixels
Height : 1 080 pixels
Display aspect ratio : 16:9
Frame rate : 25.000 FPS
Standard : Component
Color space : YUV
Chroma subsampling : 4:2:0
Bit depth : 8 bits
Scan type : Interlaced
Scan type, store method : Separated fields
Scan order : Top Field First
Bits/(Pixel*Frame) : 0.139
Stream size : 2.65 GiB (93%)
Color range : Limited
Color primaries : BT.709
Transfer characteristics : BT.709
Matrix coefficients : BT.709
Audio
ID : 2004 (0x7D4)
Menu ID : 304 (0x130)
Format : MPEG Audio
Format version : Version 1
Format profile : Layer 2
Codec ID : 3
Duration : 52 min 34 s
Bit rate mode : Constant
Bit rate : 192 kb/s
Channel(s) : 2 channels
Sampling rate : 48.0 kHz
Frame rate : 41.667 FPS (1152 SPF)
Compression mode : Lossy
Stream size : 72.2 MiB (2%)
Language : Russian

Треклист

01. Пока танцуют ангелы
02. Первый день осени
03. Улыбайся
04. Всё в порядке
05. Зачем топтать мою любовь
06. Апрель
07. Розовые Очки
08. Звёзды
09. Вечно молодой
Автор релиза: kuzmichm2196
[Profile] [PM]
Display posts:    
Reply to topic

Current time is: 17-Jun 11:01

All times are UTC + 3



You cannot post new topics in this forum
You cannot reply to topics in this forum
You cannot edit your posts in this forum
You cannot delete your posts in this forum
You cannot vote in polls in this forum
You cannot attach files in this forum
You cannot download files in this forum