Неожиданный Задорнов (2018) HDTVRip от Files-x

Ответить на тему
 
Автор Сообщение

Nicodem ®

Пол: Мужской

Стаж: 4 месяца 4 дня

Сообщений: 178

Создавать темы 25-Ноя-2018 16:30

[Цитировать]

Неожиданный Задорнов
Год выпуска: 2018
Жанр: Документальный
Выпущено: Россия, ООО "Смикмедиа" по заказу АО "Телекомпания НТВ"
Режиссер: Татьяна Лебяжьева
О фильме: К юбилею популярного сатирика Михаила Задорнова телеканал НТВ покажет новый документальный фильм, в котором собраны уникальные истории и неизвестные факты из личной жизни артиста. В основе проекта «Неожиданный Задорнов» — телевизионные съемки, в которых сатирик принимал участие незадолго до ухода: в них он откровенно рассказал о своей жизни. О близком человеке и друге вспомнят жена Елена Бомбина, дочь Елена, сестра Людмила, а также Максим Галкин, Геннадий Хазанов, Сергей Дроботенко, Алексей Кортнев, Владимир Качан и Ирина Безрукова. Большинству зрителей и поклонников Михаил Задорнов запомнился как непримиримый сатирик, который дерзко обличал мировую фальшь и глупость. Но это лишь одна сторона его жизни и творчества. Одни восхищались им и заполняли зрительские залы, других его сатирические монологи возмущали. В пьесе Григория Горина «Дом, который построил Свифт» есть точная фраза об участи сатириков всех времен: «Поэтов закидывают цветами. Сатириков — булыжниками. Сатирик, который перестал возмущать — кончился». В этом смысле сатира Задорнова будет вечно кому-то мешать и раздражать, продлевая тем самым память о нем.
Качество: HDTVRip
Видео: XviD, ~ 1984 Кбит/с, 720x400, 25 кадр/с
Аудио: AC3, 2 ch, 192 Кбит/с
Продолжительность: 01:30:00
Перевод: Не требуется
Cубтитры: нет

MediaInfo

General
Complete name : C:\Users\DOM\Downloads\Неожиданный Задорнов.2018.HDTVRip.by.Nicodem.Files-x.avi
Format : AVI
Format/Info : Audio Video Interleave
File size : 1.37 GiB
Duration : 1h 29mn
Overall bit rate : 2 186 Kbps
Writing application : VirtualDubMod 1.5.10.3 | www.virtualdub-fr.org || (build 2550/release)
Writing library : VirtualDubMod build 2550/release
Video
ID : 0
Format : MPEG-4 Visual
Format profile : Advanced Simple@L5
Format settings, BVOP : 1
Format settings, QPel : Yes
Format settings, GMC : No warppoints
Format settings, Matrix : Custom
Codec ID : XVID
Codec ID/Hint : XviD
Duration : 1h 29mn
Bit rate : 1 984 Kbps
Width : 720 pixels
Height : 400 pixels
Display aspect ratio : 16:9
Frame rate : 25.000 fps
Color space : YUV
Chroma subsampling : 4:2:0
Bit depth : 8 bits
Scan type : Progressive
Compression mode : Lossy
Bits/(Pixel*Frame) : 0.276
Stream size : 1.25 GiB (91%)
Writing library : XviD 73
Audio
ID : 1
Format : AC-3
Format/Info : Audio Coding 3
Mode extension : CM (complete main)
Codec ID : 2000
Duration : 1h 29mn
Bit rate mode : Constant
Bit rate : 192 Kbps
Channel(s) : 2 channels
Channel positions : Front: L R
Sampling rate : 48.0 KHz
Bit depth : 16 bits
Compression mode : Lossy
Stream size : 124 MiB (9%)
Alignment : Split accross interleaves
Interleave, duration : 40 ms (1.00 video frame)
Interleave, preload duration : 500 ms
Релиз от:

Релиз подготовлен R.G.Files-x

[Профиль] [ЛС]
Показать сообщения:    
Ответить на тему

Текущее время: 22-Мар 10:21

Часовой пояс: UTC + 3



Вы не можете начинать темы
Вы не можете отвечать на сообщения
Вы не можете редактировать свои сообщения
Вы не можете удалять свои сообщения
Вы не можете голосовать в опросах
Вы не можете прикреплять файлы к сообщениям
Вы не можете скачивать файлы