Так не бывает [1-8 серии из 8] (2015) HDTVRip от Files-x

Reply to topic
 
Author Message

Nicodem ®

Gender: Male

Longevity: 10 months

Posts: 221

Post 25-Nov-2018 16:42

[Quote]

Так не бывает
Год выпуска: 2015
Жанр: Лирическая комедия
Выпущено: Россия, Кинокомпания "Марс Медиа Энтертейнмент"
Режиссер: Наталья Хлопецкая
В ролях: Виталий Хаев, Вера Воронкова, Людмила Чурсина, Сергей Чирков, Александра Тюфтей, Евгения Розанова, Сергей Годин, Иван Макаревич, Александр Яцко, Алексей Колубков, Александр Пацевич, Юрий Черкасов, Алексей Михайлов (II), Сергей Петров (II), Александр Карпиловский, Герман Строганов, Татьяна Самойлова (II), Сергей Холмогоров, Владимир Демидов, Дмитрий Грачёв (II), Янина Хачатурова, Константин Мошкин, Ксения Радченко (II), Владимир Кебин, Любовь Иванова (III), Олег Казанин, Светлана Закирова, Денис Кудрявцев, Егор Потапов, Ольга Пащенко
О фильме: Илья и Маша знакомят родителей во время празднования своей свадьбы. Отношения между отцом Маши Романом Петровичем и матерью Ильи Дарьей Олеговной сразу не заладились. Но проходит год, и неожиданно между ними вспыхивает страсть. Осложняет все то, что Роман Петрович женат...

Качество: HDTVRip
Видео: XviD, ~ 1785 Кбит/с, 720x400, 25 кадр/с
Аудио: AC3, 2 ch, 192 Кбит/с
Продолжительность: 8 х 00:49:20
Перевод: Не требуется
Cубтитры: нет

Скриншоты

MediaInfo

General
Complete name : C:\Users\DOM\Downloads\Так не бывает.2015.HDTVRip.by.Nicodem.Files-x\01.Так не бывает.2015.HDTVRip.by.Nicodem.Files-x.avi
Format : AVI
Format/Info : Audio Video Interleave
File size : 701 MiB
Duration : 49mn 18s
Overall bit rate : 1 987 Kbps
Writing application : VirtualDubMod 1.5.10.3 | www.virtualdub-fr.org || (build 2550/release)
Writing library : VirtualDubMod build 2550/release
Video
ID : 0
Format : MPEG-4 Visual
Format profile : Advanced Simple@L5
Format settings, BVOP : 1
Format settings, QPel : Yes
Format settings, GMC : No warppoints
Format settings, Matrix : Custom
Codec ID : XVID
Codec ID/Hint : XviD
Duration : 49mn 18s
Bit rate : 1 785 Kbps
Width : 720 pixels
Height : 400 pixels
Display aspect ratio : 16:9
Frame rate : 25.000 fps
Color space : YUV
Chroma subsampling : 4:2:0
Bit depth : 8 bits
Scan type : Progressive
Compression mode : Lossy
Bits/(Pixel*Frame) : 0.248
Stream size : 630 MiB (90%)
Writing library : XviD 73
Audio
ID : 1
Format : AC-3
Format/Info : Audio Coding 3
Mode extension : CM (complete main)
Codec ID : 2000
Duration : 49mn 18s
Bit rate mode : Constant
Bit rate : 192 Kbps
Channel(s) : 2 channels
Channel positions : Front: L R
Sampling rate : 48.0 KHz
Bit depth : 16 bits
Compression mode : Lossy
Stream size : 67.7 MiB (10%)
Alignment : Split accross interleaves
Interleave, duration : 40 ms (1.00 video frame)
Interleave, preload duration : 500 ms
Релиз от:
[Profile] [PM]
Display posts:    
Reply to topic

Current time is: 18-Sep 04:54

All times are UTC + 3



You cannot post new topics in this forum
You cannot reply to topics in this forum
You cannot edit your posts in this forum
You cannot delete your posts in this forum
You cannot vote in polls in this forum
You cannot attach files in this forum
You cannot download files in this forum