Третий должен уйти [1-2 серии из 2] (2018) HDTVRip от Files-x

Reply to topic
 
Author Message

bond74 ®

Gender: Male

Longevity: 11 months

Posts: 680

Post 25-Nov-2018 16:46

[Quote]

Эксперт Год выпуска: 2018
Жанр: Мелодрама
Выпущено: Россия, Бабблгам продакшн
Режиссер: Максим Кубринский
В ролях: Глафира Тарханова, Анатолий Руденко, Дмитрий Ратомский, Алла Подчуфарова, Артём Федотов, Екатерина Виноградова, Светлана Чернова, Андрей Харыбин, Екатерина Седик, Никита Тезов
О фильме: Лиза Андреева привыкла во всем поддерживать своего любимого мужа Илью и уверена, что за ним она "как за каменной стеной". Она радуется его успехам в ресторанном бизнесе и строит большие планы. Но чем лучше идут дела Ильи, тем больше у Лизы появляется причин для ревности. Она старается не реагировать на знаки внимания, которые он оказывает другим женщинам, и уговаривает себя, что муж не мог разлюбить ее. Но однажды Илью обвиняют в изнасиловании, и он оказывается в тюрьме. Теперь Лизе придется решить, сможет ли она поверить человеку, с которым была счастлива двенадцать лет.

Качество: HDTVRip
Видео: XviD, ~ 1700 Кбит/с, 720x400, 25 кадр/с
Аудио: AC3, 2 ch, 192 Кбит/с
Продолжительность: 2 x ~ 01:30:00
Перевод: Не требуется
Субтитры: нет

Скриншоты

MediaInfo

General
General
Complete name : D:\Третий должен уйти 2018 HDTVRip\Третий должен уйти e01-02 HDTVRip.avi
Format : AVI
Format/Info : Audio Video Interleave
File size : 1.19 GiB
Duration : 1 h 29 min
Overall bit rate : 1 900 kb/s
Writing application : VirtualDubMod 1.5.10.3 | www.virtualdub-fr.org || (build 2550/release)
Writing library : VirtualDubMod build 2550/release
Video
ID : 0
Format : MPEG-4 Visual
Format profile : Advanced Simple@L5
Format settings : BVOP1
Format settings, BVOP : 1
Format settings, QPel : No
Format settings, GMC : No warppoints
Format settings, Matrix : Default (MPEG)
Codec ID : XVID
Codec ID/Hint : XviD
Duration : 1 h 29 min
Bit rate : 1 698 kb/s
Width : 720 pixels
Height : 400 pixels
Display aspect ratio : 16:9
Frame rate : 25.000 FPS
Color space : YUV
Chroma subsampling : 4:2:0
Bit depth : 8 bits
Scan type : Progressive
Compression mode : Lossy
Bits/(Pixel*Frame) : 0.236
Stream size : 1.06 GiB (89%)
Writing library : XviD 73
Audio
ID : 1
Format : AC-3
Format/Info : Audio Coding 3
Codec ID : 2000
Duration : 1 h 29 min
Bit rate mode : Constant
Bit rate : 192 kb/s
Channel(s) : 2 channels
Channel positions : Front: L R
Sampling rate : 48.0 kHz
Frame rate : 31.250 FPS (1536 SPF)
Bit depth : 16 bits
Compression mode : Lossy
Stream size : 123 MiB (10%)
Alignment : Split accross interleaves
Interleave, duration : 40 ms (1.00 video frame)
Interleave, preload duratio : 500 ms
Service kind : Complete Main
Релиз от:


Last edited by bond74 on 2018-11-25 22:45; edited 1 time in total
[Profile] [PM]
Display posts:    
Reply to topic

Current time is: 13-Nov 21:33

All times are UTC + 3



You cannot post new topics in this forum
You cannot reply to topics in this forum
You cannot edit your posts in this forum
You cannot delete your posts in this forum
You cannot vote in polls in this forum
You cannot attach files in this forum
You cannot download files in this forum