Все возрасты любви [1-8 серии из 8] (2018) WEB-DLRip от Files-x

Reply to topic
 
Author Message

bond74 ®

Gender: Male

Longevity: 10 months 3 days

Posts: 633

Post 25-Nov-2018 16:51

[Quote]

Все возрасты любви Год выпуска: 2018
Жанр: Комедия, мелодрама
Выпущено: Россия, Кинокомпания Фаворит Фильм
Режиссер: Александр Муратов (II)
В ролях: Екатерина Гусева, Филипп Бледный, Ирина Уханова, Евгения Добровольская, Татьяна Абрамова, Владимир Ерёмин, Анатолий Кот, Олег Масленников-Войтов, Николай Наумов (II), Александр Чевычелов, Елена Радевич, Тамара Миронова, Инна Коляда
О фильме: У каждого из трех главных героев фильма за плечами не очень удачная личная жизнь. И вот словно Судьба предоставила им другую попытку. Разведенный топ-менеджер Маковцов решил жениться на молоденькой няне своей 14-летней дочери Вики, не подозревая, что у няни есть свой бойфренд и некоторые планы относительно имущества топ-менеджера. Бывшая жена Маковцова Катя в свои 37 лет фактически поставила на себе крест как на женщине, что не помешало ей как следует влюбиться в 25-летнего Игоря и выдержать по этому поводу бесконечный негатив от близких и не только близких людей. Что же касается Игоря, то его попытка отделаться от надоевших отношений с ровесницей Инной заканчиваются пулевым ранением и больницей. Немалую роль во всем происходящем играют продвинутый тинейджер Вика, с подростковой непосредственностью вмешиваясь в дела взрослых, а также разведенные мать и отец Игоря, у которых и своих проблем в личной жизни навалом.

Качество: WEB-DLRip
Видео: XviD, ~ 1500 Кбит/с, 720x400, 25 кадр/с
Аудио: AC3, 2 ch, 192 Кбит/с
Продолжительность: 8 х ~ 00:51:00
Перевод: Не требуется
Субтитры: нет

Скриншоты

MediaInfo

General
General
Complete name : Downloads\Все возрасты любви (2018).WEB-DLRip.Files-x\1.Все возрасты любви (2018).WEB-DLRip.Files-x.avi
Format : AVI
Format/Info : Audio Video Interleave
File size : 598 MiB
Duration : 49mn 37s
Overall bit rate : 1 684 Kbps
Writing application : VirtualDubMod 1.5.10.3 | www.virtualdub-fr.org || (build 2550/release)
Writing library : VirtualDubMod build 2550/release
Video #0
ID : 0
Format : MPEG-4 Visual
Format profile : Advanced Simple@L5
Format settings, BVOP : 1
Format settings, QPel : No
Format settings, GMC : No warppoints
Format settings, Matrix : Custom
Codec ID : XVID
Codec ID/Hint : XviD
Duration : 49mn 37s
Bit rate : 1 482 Kbps
Width : 720 pixels
Height : 400 pixels
Display aspect ratio : 16:9
Frame rate : 25.000 fps
Color space : YUV
Chroma subsampling : 4:2:0
Bit depth : 8 bits
Scan type : Progressive
Compression mode : Lossy
Bits/(Pixel*Frame) : 0.206
Stream size : 526 MiB (88%)
Writing library : XviD 73
Audio #1
ID : 1
Format : AC-3
Format/Info : Audio Coding 3
Mode extension : CM (complete main)
Format settings, Endianness : Big
Codec ID : 2000
Duration : 49mn 37s
Bit rate mode : Constant
Bit rate : 192 Kbps
Channel(s) : 2 channels
Channel positions : Front: L R
Sampling rate : 48.0 KHz
Bit depth : 16 bits
Compression mode : Lossy
Stream size : 68.1 MiB (11%)
Alignment : Split accross interleaves
Interleave, duration : 40 ms (1.00 video frame)
Interleave, preload duration : 500 ms
Релиз от:


Last edited by bond74 on 2018-11-25 22:54; edited 1 time in total
[Profile] [PM]
Display posts:    
Reply to topic

Current time is: 18-Sep 04:49

All times are UTC + 3



You cannot post new topics in this forum
You cannot reply to topics in this forum
You cannot edit your posts in this forum
You cannot delete your posts in this forum
You cannot vote in polls in this forum
You cannot attach files in this forum
You cannot download files in this forum