Морские дьяволы. Рубежи Родины [1 сезон: 1-24 из 24] (2018) WEBRip от Files-x

Ответить на тему
 
Автор Сообщение

bond74 ®

Пол: Мужской

Стаж: 4 месяца 7 дней

Сообщений: 267

Создавать темы 25-Ноя-2018 16:58

[Цитировать]

Морские дьяволы. Рубежи Родины Год выпуска: 2018
Жанр: Боевик, приключения, детектив, криминал
Выпущено: Россия, Гамма-Продакшн
Режиссер: Дмитрий Брусникин
В ролях: Олег Чернов, Дарья Юргенс (Лесникова), Иван Паршин, Антон Гуляев, Александра Большакова, Виталий Бисеров, Антон Багров, Марина Доможирова, Снежана Прудько, Кристина Оленникова, Руслан Ягудин, Александр Удальцов, Антон Чернов, Юлия Кудояр, Михаил Куряев, Владимир Потапов, Юлия Полынская, Роман Притула
О фильме: Из северных приграничных регионов отряд «НЕРПЫ» перебрасывается на секретную военную базу, местоположение которой строго засекречено, и каждое задание «НЕРП» – это боевой вылет (выезд) к месту проведения операции в разных уголках нашей страны. «Нерпами» по-прежнему командуют Бизон, Батя и Багира. В составе отряда: Кот, Сармат, Дана, Агата и Опер. Новые сюжеты развиваются в современных реалиях, в контексте, близком к сегодняшней геополитической ситуации, на фоне основных международных конфликтов, в том числе в информационной среде. В данном сезоне герои попадают в ещё более реалистичные и экстремальные ситуации. В основе каждого нового фильма по-прежнему остается остросюжетная детективная история.

Качество: WEBRip
Видео: XviD, ~ 1500 Кбит/с, 720x400, 25 кадр/с
Аудио: AC3, 2 ch, 192 Кбит/с
Продолжительность: 24 х ~ 00:51:00
Перевод: Не требуется
Субтитры: нет

Скриншоты

MediaInfo

General
General
General
Complete name : D:\Морские дьяволы. Рубежи родины.2018.WEB-DLRip.Files-x\01.Морские дьяволы. Рубежи родины.2018.WEB-DLRip.Files-x.avi
Format : AVI
Format/Info : Audio Video Interleave
File size : 607 MiB
Duration : 50 min 0 s
Overall bit rate : 1 698 kb/s
Writing application : VirtualDubMod 1.5.10.3 | www.virtualdub-fr.org || (build 2550/release)
Writing library : VirtualDubMod build 2550/release
Video
ID : 0
Format : MPEG-4 Visual
Format profile : Advanced Simple@L5
Format settings : BVOP1 / Custom Matrix
Format settings, BVOP : 1
Format settings, QPel : No
Format settings, GMC : No warppoints
Format settings, Matrix : Custom
Codec ID : XVID
Codec ID/Hint : XviD
Duration : 50 min 0 s
Bit rate : 1 496 kb/s
Width : 720 pixels
Height : 400 pixels
Display aspect ratio : 16:9
Frame rate : 25.000 FPS
Color space : YUV
Chroma subsampling : 4:2:0
Bit depth : 8 bits
Scan type : Progressive
Compression mode : Lossy
Bits/(Pixel*Frame) : 0.208
Stream size : 535 MiB (88%)
Writing library : XviD 73
Audio
ID : 1
Format : AC-3
Format/Info : Audio Coding 3
Codec ID : 2000
Duration : 50 min 0 s
Bit rate mode : Constant
Bit rate : 192 kb/s
Channel(s) : 2 channels
Channel positions : Front: L R
Sampling rate : 48.0 kHz
Frame rate : 31.250 FPS (1536 SPF)
Bit depth : 16 bits
Compression mode : Lossy
Stream size : 68.7 MiB (11%)
Alignment : Split accross interleaves
Interleave, duration : 40 ms (1.00 video frame)
Interleave, preload duratio : 500 ms
Service kind : Complete Main
Релиз от:

Релиз подготовлен R.G.Files-x



Последний раз редактировалось: bond74 (2018-11-25 22:44), всего редактировалось 1 раз
[Профиль] [ЛС]
Показать сообщения:    
Ответить на тему

Текущее время: 22-Мар 10:24

Часовой пояс: UTC + 3



Вы не можете начинать темы
Вы не можете отвечать на сообщения
Вы не можете редактировать свои сообщения
Вы не можете удалять свои сообщения
Вы не можете голосовать в опросах
Вы не можете прикреплять файлы к сообщениям
Вы не можете скачивать файлы