Discovery. Забытая инженерия / Abandoned Engineering [2 сезон: 1-14 серии из 14] (2018) HDTVRip от GeneralFilm

Reply to topic
 
Author Message

Starik60 ®

Gender: Male

Longevity: 5 months 6 days

Posts: 121

Location: Москва, Россия

Post 17-Nov-2018 18:20

[Quote]

Забытая инженерия / Abandoned Engineering
Год выпуска: 2018
Жанр: Документальный, научно-познавательный, исследования, история
Выпущено: США, Discovery Channel
О фильме: Одни из самых выдающихся сооружений и конструкций, которые ещё недавно считались воплощением смелой мечты, теперь лежат в руинах. Как и почему это произошло? Возможно ли возродить их? Разработчики и конструкторы расскажут об их прошлом, а новаторы и предприниматели постараются подарить этим проектам будущее. Вы увидите самые знаменитые заброшенные объекты, расположенные в разных уголках планеты. Многие из этих сооружений обрели вторую жизнь в совершенно ином качестве. Детальный экскурс в историю технических и инженерных конструкций, подсчёт материальных потерь, анализ масштабов экологического урона и социального ущерба от их строительства – всё это в новом сезоне.

Качество: HDTVRip
Видео: XviD, ~ 1900 Кбит/с, 720x400
Аудио: AC3, 2 ch, 192 Кбит/c
Продолжительность: 14 х ~ 00:44:00
Перевод: Профессиональный (двухголосый, закадровый)

Скриншоты



MediaInfo

General
Complete name : H:\Раздачи 4\Забытая инженерия S02 GeneralFilm\01 Забытая инженерия GeneralFilm.avi
Format : AVI
Format/Info : Audio Video Interleave
File size : 660 MiB
Duration : 43 min 54 s
Overall bit rate : 2 102 kb/s
Writing application : VirtualDubMod 1.5.10.3 | www.virtualdub-fr.org || (build 2550/release)
Writing library : VirtualDubMod build 2550/release
Video
ID : 0
Format : MPEG-4 Visual
Format profile : Advanced Simple@L5
Format settings : BVOP1 / Custom Matrix
Format settings, BVOP : 1
Format settings, QPel : No
Format settings, GMC : No warppoints
Format settings, Matrix : Custom
Codec ID : XVID
Codec ID/Hint : XviD
Duration : 43 min 54 s
Bit rate : 1 900 kb/s
Width : 720 pixels
Height : 400 pixels
Display aspect ratio : 16:9
Frame rate : 25.000 FPS
Color space : YUV
Chroma subsampling : 4:2:0
Bit depth : 8 bits
Scan type : Progressive
Compression mode : Lossy
Bits/(Pixel*Frame) : 0.264
Stream size : 597 MiB (90%)
Writing library : XviD 73
Audio
ID : 1
Format : AC-3
Format/Info : Audio Coding 3
Commercial name : Dolby Digital
Codec ID : 2000
Duration : 43 min 54 s
Bit rate mode : Constant
Bit rate : 192 kb/s
Channel(s) : 2 channels
Channel layout : L R
Sampling rate : 48.0 kHz
Frame rate : 31.250 FPS (1536 SPF)
Bit depth : 16 bits
Compression mode : Lossy
Stream size : 60.3 MiB (9%)
Alignment : Split accross interleaves
Interleave, duration : 40 ms (1.00 video frame)
Interleave, preload duratio : 500 ms
Service kind : Complete Main
Благодарю за отличный постер ValkiriaGF
Релиз от:
[Profile] [PM]
Display posts:    
Reply to topic

Current time is: 18-Apr 16:19

All times are UTC + 3



You cannot post new topics in this forum
You cannot reply to topics in this forum
You cannot edit your posts in this forum
You cannot delete your posts in this forum
You cannot vote in polls in this forum
You cannot attach files in this forum
You cannot download files in this forum