Топор [1-2 серии из 2] (2018) SATRip от Files-x

Reply to topic
 
Author Message

Nicodem ®

Gender: Male

Longevity: 9 months 8 days

Posts: 204

Post 25-Nov-2018 17:20

[Quote]

Топор
Год выпуска: 2018
Жанр: Военный фильм, драма, исторический фильм
Выпущено: Россия, Кинокомпания "Марс Медиа Энтертейнмент" по заказу НТВ
Режиссер: Владимир Семеновых
В ролях: Андрей Смоляков, Дмитрий Шевченко, Дарья Калмыкова, Артём Алексеев (II), Иван Шибанов, Владимир Капустин, Глеб Подгородинский, Иван Борисов, Александр Ильин, Олег Васильков, Виктор Степанян, Артём Осипов, Константин Юдаев
О фильме: Сибирский отшельник, чья жизнь была разрушена жерновами Великой Октябрьской революции, проводит 17 лет в добровольном изгнании. Узнав о нападении фашистской Германии на СССР, бывший казачий офицер, не задумываясь, устремляется на фронт, чтобы защитить родную землю.

Качество: SATRip
Видео: XviD, ~ 1719 Кбит/с, 720x400, 25 кадр/с
Аудио: AC3, 2 ch, 192 Кбит/с
Продолжительность: 2 х 00:43:35
Перевод: Не требуется
Cубтитры: нет

Скриншоты



MediaInfo

General
Complete name : C:\Users\DOM\Downloads\Топор.2018.SATRip.by.Nicodem.Files-x\01.Топор.2018.SATRip.by.Nicodem.Files-x.avi
Format : AVI
Format/Info : Audio Video Interleave
File size : 599 MiB
Duration : 43mn 35s
Overall bit rate : 1 921 Kbps
Writing application : VirtualDubMod 1.5.10.3 | www.virtualdub-fr.org || (build 2550/release)
Writing library : VirtualDubMod build 2550/release
Video
ID : 0
Format : MPEG-4 Visual
Format profile : Advanced Simple@L5
Format settings, BVOP : 1
Format settings, QPel : Yes
Format settings, GMC : No warppoints
Format settings, Matrix : Custom
Codec ID : XVID
Codec ID/Hint : XviD
Duration : 43mn 35s
Bit rate : 1 719 Kbps
Width : 720 pixels
Height : 400 pixels
Display aspect ratio : 16:9
Frame rate : 25.000 fps
Color space : YUV
Chroma subsampling : 4:2:0
Bit depth : 8 bits
Scan type : Progressive
Compression mode : Lossy
Bits/(Pixel*Frame) : 0.239
Stream size : 536 MiB (89%)
Writing library : XviD 73
Audio
ID : 1
Format : AC-3
Format/Info : Audio Coding 3
Mode extension : CM (complete main)
Codec ID : 2000
Duration : 43mn 35s
Bit rate mode : Constant
Bit rate : 192 Kbps
Channel(s) : 2 channels
Channel positions : Front: L R
Sampling rate : 48.0 KHz
Bit depth : 16 bits
Compression mode : Lossy
Stream size : 59.9 MiB (10%)
Alignment : Split accross interleaves
Interleave, duration : 40 ms (1.00 video frame)
Interleave, preload duration : 500 ms
Релиз от:
[Profile] [PM]
Display posts:    
Reply to topic

Current time is: 25-Aug 15:25

All times are UTC + 3



You cannot post new topics in this forum
You cannot reply to topics in this forum
You cannot edit your posts in this forum
You cannot delete your posts in this forum
You cannot vote in polls in this forum
You cannot attach files in this forum
You cannot download files in this forum