Топор [1-2 серии из 2] (2018) WEBRip-AVC от Files-x

Reply to topic
 
Author Message

Nicodem ®

Gender: Male

Longevity: 6 months 7 days

Posts: 178

Post 25-Nov-2018 17:27

[Quote]

Топор
Год выпуска: 2018
Жанр: Военный фильм, драма, исторический фильм
Выпущено: Россия, Кинокомпания "Марс Медиа Энтертейнмент" по заказу НТВ
Режиссер: Владимир Семеновых
В ролях: Андрей Смоляков, Дмитрий Шевченко, Дарья Калмыкова, Артём Алексеев (II), Иван Шибанов, Владимир Капустин, Глеб Подгородинский, Иван Борисов, Александр Ильин, Олег Васильков, Виктор Степанян, Артём Осипов, Константин Юдаев
О фильме: Сибирский отшельник, чья жизнь была разрушена жерновами Великой Октябрьской революции, проводит 17 лет в добровольном изгнании. Узнав о нападении фашистской Германии на СССР, бывший казачий офицер, не задумываясь, устремляется на фронт, чтобы защитить родную землю.

Качество: WEBRip-AVC
Видео: MPEG-4 AVC, ~ 1600 Кбит/с, 1024x576, 25 кадр/с
Аудио: AC3, 2 ch, 192 Кбит/с
Продолжительность: 2 х 00:43:35
Перевод: Не требуется
Cубтитры: нет

Скриншоты


MediaInfo

General
Unique ID : 171773457803035161015624477329905324153 (0x813A5D56A5AA46A2AF0BB46177C69079)
Complete name : C:\Users\DOM\Downloads\Топор.(2018).WEB-DLRip.(AVC).Files-x\01.Topor.(2018).WEB-DLRip.(AVC).by.Серый1779.Files-x.mkv
Format : Matroska
File size : 564 MiB
Duration : 43mn 56s
Overall bit rate : 1 794 Kbps
Encoded date : UTC 2018-05-10 10:57:58
Writing application : mkvmerge v7.8.0 ('River Man') 32bit built on Apr 3 2015 12:11:22
Writing library : libebml v1.3.1 + libmatroska v1.4.2
Video
ID : 1
Format : AVC
Format/Info : Advanced Video Codec
Format profile : High@L4.1
Format settings, CABAC : Yes
Format settings, ReFrames : 9 frames
Codec ID : V_MPEG4/ISO/AVC
Duration : 43mn 56s
Bit rate : 1 600 Kbps
Width : 1 024 pixels
Height : 576 pixels
Display aspect ratio : 16:9
Frame rate : 25.000 fps
Color space : YUV
Chroma subsampling : 4:2:0
Bit depth : 8 bits
Scan type : Progressive
Bits/(Pixel*Frame) : 0.109
Stream size : 492 MiB (87%)
Writing library : x264 core 146 r2538 121396c
Encoding settings : cabac=1 / ref=9 / deblock=1:-2:-1 / analyse=0x3:0x133 / me=umh / subme=9 / psy=1 / psy_rd=1.00:0.15 / mixed_ref=1 / me_range=32 / chroma_me=1 / trellis=2 / 8x8dct=1 / cqm=0 / deadzone=21,11 / fast_pskip=0 / chroma_qp_offset=-3 / threads=18 / lookahead_threads=3 / sliced_threads=0 / nr=0 / decimate=1 / interlaced=0 / bluray_compat=0 / constrained_intra=0 / bframes=9 / b_pyramid=2 / b_adapt=2 / b_bias=0 / direct=1 / weightb=1 / open_gop=0 / weightp=2 / keyint=250 / keyint_min=25 / scenecut=40 / intra_refresh=0 / rc=2pass / mbtree=0 / bitrate=1600 / ratetol=1.0 / qcomp=0.60 / qpmin=0 / qpmax=69 / qpstep=4 / cplxblur=20.0 / qblur=0.5 / ip_ratio=1.40 / pb_ratio=1.30 / aq=2:1.00
Color primaries : BT.709-5, BT.1361, IEC 61966-2-4, SMPTE RP177
Transfer characteristics : BT.709-5, BT.1361
Matrix coefficients : BT.709-5, BT.1361, IEC 61966-2-4 709, SMPTE RP177
Audio
ID : 2
Format : AC-3
Format/Info : Audio Coding 3
Mode extension : CM (complete main)
Codec ID : A_AC3
Duration : 43mn 56s
Bit rate mode : Constant
Bit rate : 192 Kbps
Channel(s) : 2 channels
Channel positions : Front: L R
Sampling rate : 48.0 KHz
Bit depth : 16 bits
Compression mode : Lossy
Stream size : 60.4 MiB (11%)
Релиз от:
[Profile] [PM]
Display posts:    
Reply to topic

Current time is: 24-May 17:07

All times are UTC + 3



You cannot post new topics in this forum
You cannot reply to topics in this forum
You cannot edit your posts in this forum
You cannot delete your posts in this forum
You cannot vote in polls in this forum
You cannot attach files in this forum
You cannot download files in this forum