Поезд судьбы [1-2 серии из 2] (2018) WEB-DLRip от Files-x

Reply to topic
 
Author Message

Nicodem ®

Gender: Male

Longevity: 11 months 2 days

Posts: 255

Post 25-Nov-2018 17:51

[Quote]

Поезд судьбы
Год выпуска: 2018
Жанр: Мелодрама
Выпущено: Россия, ООО "Тесей Продакшн", Медиа-Арена
Режиссер: Андрей Хрулёв
В ролях: Марина Иванова, Александр Головин, Дмитрий Мухин, Александр Цуркан, Сергей Пукита, Виктория Бурчиц, Людмила Малеева, Юлианна Михневич, Дарья Баранова
О фильме: Люся (Марина Иванова) мечтает быть художницей, но пока вынуждена работать уборщицей на железнодорожном вокзале провинциального городка. В нее безнадежно влюблен охранник Федя (Александр Головин) – молодой одинокий отец с маленьким сыном. Но Люся не отвечает на его чувства, она ищет более утонченного и интересного мужчину. И вот однажды судьба сводит Люсю с мужчиной ее мечты. В поезде она знакомится с Максимом (Дмитрий Мухин) – красавцем-искусствоведом из столицы. Люся спасает его и поселяет у себя в квартире, не подозревая о криминальном прошлом своего "прекрасного принца" …

Качество: WEB-DLRip
Видео: XviD, ~ 1925 Кбит/с, 720x400, 25 кадр/с
Аудио: AC3, 2 ch, 192 Кбит/с
Продолжительность: 2 х 01:30:00
Перевод: Не требуется
Cубтитры: нет

Скриншоты

MediaInfo

General
Complete name : C:\Users\DOM\Downloads\Поезд судьбы..2018.WEB-DLRip.Files-x\01.Поезд судьбы..2018.WEB-DLRip.Files-x.avi
Format : AVI
Format/Info : Audio Video Interleave
File size : 1.37 GiB
Duration : 1h 31mn
Overall bit rate : 2 126 Kbps
Writing application : VirtualDubMod 1.5.10.3 | www.virtualdub-fr.org || (build 2550/release)
Writing library : VirtualDubMod build 2550/release
Video
ID : 0
Format : MPEG-4 Visual
Format profile : Advanced Simple@L5
Format settings, BVOP : 1
Format settings, QPel : No
Format settings, GMC : No warppoints
Format settings, Matrix : Custom
Codec ID : XVID
Codec ID/Hint : XviD
Duration : 1h 31mn
Bit rate : 1 925 Kbps
Width : 720 pixels
Height : 400 pixels
Display aspect ratio : 16:9
Frame rate : 25.000 fps
Color space : YUV
Chroma subsampling : 4:2:0
Bit depth : 8 bits
Scan type : Progressive
Compression mode : Lossy
Bits/(Pixel*Frame) : 0.267
Stream size : 1.24 GiB (91%)
Writing library : XviD 73
Audio
ID : 1
Format : AC-3
Format/Info : Audio Coding 3
Mode extension : CM (complete main)
Codec ID : 2000
Duration : 1h 31mn
Bit rate mode : Constant
Bit rate : 192 Kbps
Channel(s) : 2 channels
Channel positions : Front: L R
Sampling rate : 48.0 KHz
Bit depth : 16 bits
Compression mode : Lossy
Stream size : 126 MiB (9%)
Alignment : Split accross interleaves
Interleave, duration : 40 ms (1.00 video frame)
Interleave, preload duration : 500 ms
Релиз от:
[Profile] [PM]
Display posts:    
Reply to topic

Current time is: 19-Oct 21:34

All times are UTC + 3



You cannot post new topics in this forum
You cannot reply to topics in this forum
You cannot edit your posts in this forum
You cannot delete your posts in this forum
You cannot vote in polls in this forum
You cannot attach files in this forum
You cannot download files in this forum