Берёзка [1-16 серии из 16] (2018) WEB-DLRip от Files-x

Reply to topic
 
Author Message

bond74 ®

Gender: Male

Longevity: 6 months 9 days

Posts: 442

Post 25-Nov-2018 18:19

[Quote]

Берёзка Год выпуска: 2018
Жанр: Мелодрама
Выпущено: Россия, Кинокомпания Русское
Режиссер: Александр Баранов (II)
В ролях: Любовь Константинова, Ольга Бобкова, Алёна Коломина, Мария Порошина, Лидия Вележева, Алексей Серебряков, Михаил Ефремов, Нина Усатова, Надежда Маркина, Евгений Сидихин, Сергей Шакуров, Михаил Пшеничный, Пётр Рыков, Анастасия Стежко, Татьяна Чердынцева, Евгения Каверау, Александр Никитин
О фильме: Вот уже 70 лет ансамбль «Березка» завораживает зрителей диковинным «плывущим» шагом, создающим впечатление, будто девушки стоят на месте, а сцена под ними вращается. Талантливым танцовщицам — дерзкой провинциалке Варе, амбициозной красавице из Таллинна Эдите и коренной москвичке Лене — предстоит пройти непростой путь к большой сцене, невзирая на череду взлётов и падений.

Качество: WEB-DLRip
Видео: XviD ~ 1500 Кбит/с, 720x400, 25 кадр/с
Аудио: AC3, 2 ch, 192 Кбит/с
Продолжительность: 16 х ~ 00:51:00
Перевод: Не требуется
Субтитры: нет

Скриншоты

MediaInfo

General
General
Complete name : Downloads\Берёзка.2018.WEB-DLRip.Files-x\01.Берёзка.2018.WEB-DLRip.Files-x.avi
Format : AVI
Format/Info : Audio Video Interleave
File size : 649 MiB
Duration : 52mn 26s
Overall bit rate : 1 731 Kbps
Writing application : VirtualDubMod 1.5.10.3 | www.virtualdub-fr.org || (build 2550/release)
Writing library : VirtualDubMod build 2550/release
Video #0
ID : 0
Format : MPEG-4 Visual
Format profile : Advanced Simple@L5
Format settings, BVOP : 1
Format settings, QPel : No
Format settings, GMC : No warppoints
Format settings, Matrix : Custom
Codec ID : XVID
Codec ID/Hint : XviD
Duration : 52mn 26s
Bit rate : 1 529 Kbps
Width : 720 pixels
Height : 400 pixels
Display aspect ratio : 16:9
Frame rate : 25.000 fps
Color space : YUV
Chroma subsampling : 4:2:0
Bit depth : 8 bits
Scan type : Progressive
Compression mode : Lossy
Bits/(Pixel*Frame) : 0.212
Stream size : 573 MiB (88%)
Writing library : XviD 73
Audio #1
ID : 1
Format : AC-3
Format/Info : Audio Coding 3
Mode extension : CM (complete main)
Format settings, Endianness : Big
Codec ID : 2000
Duration : 52mn 26s
Bit rate mode : Constant
Bit rate : 192 Kbps
Channel(s) : 2 channels
Channel positions : Front: L R
Sampling rate : 48.0 KHz
Bit depth : 16 bits
Compression mode : Lossy
Stream size : 72.0 MiB (11%)
Alignment : Split accross interleaves
Interleave, duration : 40 ms (1.00 video frame)
Interleave, preload duration : 500 ms
Релиз от:
[Profile] [PM]
Display posts:    
Reply to topic

Current time is: 23-May 20:59

All times are UTC + 3



You cannot post new topics in this forum
You cannot reply to topics in this forum
You cannot edit your posts in this forum
You cannot delete your posts in this forum
You cannot vote in polls in this forum
You cannot attach files in this forum
You cannot download files in this forum