Пять минут тишины. Возвращение [2 сезон: 1-24 серии из 24] (2018) WEBRip от Files-x

Reply to topic
 
Author Message

bond74 ®

Gender: Male

Longevity: 6 months 10 days

Posts: 446

Post 25-Nov-2018 18:29

[Quote]

Пять минут тишины. Возвращение Год выпуска: 2018
Жанр: Детектив, приключения
Выпущено: Россия, НТВ, ПРИОР Продакшн при участии Студия Грин Фильм
Режиссер: Алексей Праздников
В ролях: Игорь Лифанов, Роман Курцын, Анна Пескова, Константин Воробьёв, Артур Ваха, Анастасия Стежко, Екатерина Головина, Александр Конев, Александр Иванов (VII), Владислав Демьяненко
О фильме: Александр Грек, вернувшись после стажировки в Москву и узнав, что его невеста Лина, с которой он собирался окончательно расстаться, беременна, принимает решение жениться на матери своего ребенка. Однако остаться в столице у него не получается: ему уготована служба в отдалённом районе, и он просит направить его назад, в Карелию. Лина решает ехать с ним и там играть свадьбу. Вернувшись в Карелию, Греку предстоит пережить объяснение с Таней, которую он любит, и с Гиреевым, который зол на молодого человека, заставившего страдать его дочь.

Качество: WEBRip
Видео: XviD ~ 1500 Кбит/с,, 720x400, 25 кадр/с
Аудио: AC3, 2 ch, 192 Кбит/с
Продолжительность: 24 х ~ 00:47:00
Перевод: Не требуется
Субтитры: нет

Скриншоты

MediaInfo

General
General
Complete name : Downloads\5.minut.ticiny.vozvrachenie.2018.WEB-DLRip.Files-x
Format : AVI
Format/Info : Audio Video Interleave
File size : 600 MiB
Duration : 48mn 44s
Overall bit rate : 1 722 Kbps
Writing application : VirtualDubMod 1.5.10.3 | www.virtualdub-fr.org || (build 2550/release)
Writing library : VirtualDubMod build 2550/release
Video #0
ID : 0
Format : MPEG-4 Visual
Format profile : Advanced Simple@L5
Format settings, BVOP : 1
Format settings, QPel : No
Format settings, GMC : No warppoints
Format settings, Matrix : Custom
Codec ID : XVID
Codec ID/Hint : XviD
Duration : 48mn 44s
Bit rate : 1 520 Kbps
Width : 720 pixels
Height : 400 pixels
Display aspect ratio : 16:9
Frame rate : 25.000 fps
Color space : YUV
Chroma subsampling : 4:2:0
Bit depth : 8 bits
Scan type : Progressive
Compression mode : Lossy
Bits/(Pixel*Frame) : 0.211
Stream size : 530 MiB (88%)
Writing library : XviD 73
Audio #1
ID : 1
Format : AC-3
Format/Info : Audio Coding 3
Mode extension : CM (complete main)
Format settings, Endianness : Big
Codec ID : 2000
Duration : 48mn 44s
Bit rate mode : Constant
Bit rate : 192 Kbps
Channel(s) : 2 channels
Channel positions : Front: L R
Sampling rate : 48.0 KHz
Bit depth : 16 bits
Compression mode : Lossy
Stream size : 66.9 MiB (11%)
Alignment : Split accross interleaves
Interleave, duration : 40 ms (1.00 video frame)
Interleave, preload duration : 500 ms
Релиз от:


Last edited by bond74 on 2018-11-25 22:42; edited 1 time in total
[Profile] [PM]
Display posts:    
Reply to topic

Current time is: 25-May 15:09

All times are UTC + 3



You cannot post new topics in this forum
You cannot reply to topics in this forum
You cannot edit your posts in this forum
You cannot delete your posts in this forum
You cannot vote in polls in this forum
You cannot attach files in this forum
You cannot download files in this forum