Джокер. Охота на зверя [Сезон 3: Серия 1-4 из 4] (2018) HDTVRip от Generalfilm | КПК

Ответить на тему
 
Автор Сообщение

mjjhec ®

Пол: Мужской

Стаж: 4 месяца 5 дней

Сообщений: 146

Откуда: СССР

Создавать темы 25-Ноя-2018 18:38

[Цитировать]

Джокер. Охота на зверя
Год выпуска: 2018
Жанр: Боевик
Выпущено: Россия, Кинокомпания BERG SOUND
Режиссер: Михаил Погосов
В ролях: Дмитрий Клепацкий, Юрий Кормушин, Олег Шкловский, Татьяна Храмова, Игорь Савочкин, Евгений Березовский, Александр Борисов, Евгений Осокин, Игорь Жижикин, Дмитрий Блажко, Сергей Легостаев, Игорь Филиппов, Алексей Ушаков, Дмитрий Ким, Саят Абаджян, Марианна Васильева, Алексей Аптовцев, Анатолий Котёнев, Ирина Рудоминская, Олег Лебедев, Сергей Погосов (II), Анна Невская, Эмилия Погосова, Илья Сазыкин, Станислав Эрклиевский, Сергей Дорофеев.
О фильме: Артур «Джокер» Королёв — бывший сотрудник спецслужб. Обстоятельства вынуждают его вернуться в строй, сделав всё возможное для помощи старым друзьям. Джокеру предстоит избавить провинциальный город от власти мэра-коррупционера, который погряз в связях с криминальными организациями.
Качество: HDTVRip | КПК
Видео: Н.264, 640x360 (16:9), 25 fps, 400 Kbps
Аудио: AAC LC, 48 KHz, 2 ch, 128 Kbps
Продолжительность: 4 х ~00:50:00
Перевод: Не требуется
Cубтитры: нет

Скриншоты

MediaInfo

General
Complete name : F:\Rip\Joker.S03.by.mjjhec\02.Joker.s03.(2018).HDTVRip.mp4
Format : MPEG-4
Format profile : Base Media
Codec ID : isom (isom/avc1/iso6)
File size : 178 MiB
Duration : 46 min 46 s
Overall bit rate mode : Variable
Overall bit rate : 532 kb/s
Encoded date : UTC 2018-11-25 10:26:00
Tagged date : UTC 2018-11-25 10:26:00
Video
ID : 1
Format : AVC
Format/Info : Advanced Video Codec
Format profile : High@L4.1
Format settings : CABAC / 10 Ref Frames
Format settings, CABAC : Yes
Format settings, ReFrames : 10 frames
Codec ID : avc1
Codec ID/Info : Advanced Video Coding
Duration : 46 min 46 s
Bit rate : 400 kb/s
Maximum bit rate : 1 264 kb/s
Width : 640 pixels
Height : 360 pixels
Display aspect ratio : 16:9
Frame rate mode : Constant
Frame rate : 25.000 FPS
Color space : YUV
Chroma subsampling : 4:2:0
Bit depth : 8 bits
Scan type : Progressive
Bits/(Pixel*Frame) : 0.069
Stream size : 134 MiB (75%)
Title : 264@GPAC0.5.2-DEV-rev248-g39d5978-master
Writing library : x264 core 146 r2538 121396c
Encoding settings : cabac=1 / ref=10 / deblock=1:-3:-3 / analyse=0x3:0x133 / me=umh / subme=11 / psy=1 / psy_rd=1.00:1.00 / mixed_ref=1 / me_range=48 / chroma_me=1 / trellis=2 / 8x8dct=1 / cqm=0 / deadzone=21,11 / fast_pskip=1 / chroma_qp_offset=-4 / threads=6 / lookahead_threads=1 / sliced_threads=0 / nr=0 / decimate=0 / interlaced=0 / bluray_compat=0 / constrained_intra=0 / bframes=10 / b_pyramid=2 / b_adapt=2 / b_bias=0 / direct=3 / weightb=1 / open_gop=0 / weightp=2 / keyint=240 / keyint_min=24 / scenecut=40 / intra_refresh=0 / rc_lookahead=60 / rc=2pass / mbtree=0 / bitrate=400 / ratetol=1.0 / qcomp=0.60 / qpmin=0 / qpmax=69 / qpstep=4 / cplxblur=20.0 / qblur=0.5 / vbv_maxrate=14000 / vbv_bufsize=14000 / nal_hrd=none / filler=0 / ip_ratio=1.40 / pb_ratio=1.30 / aq=1:1.00
Encoded date : UTC 2018-11-25 10:26:00
Tagged date : UTC 2018-11-25 10:26:03
Codec configuration box : avcC
Audio
ID : 2
Format : AAC LC
Format/Info : Advanced Audio Codec Low Complexity
Codec ID : mp4a-40-2
Duration : 46 min 46 s
Bit rate mode : Variable
Bit rate : 128 kb/s
Maximum bit rate : 133 kb/s
Channel(s) : 2 channels
Channel layout : L R
Sampling rate : 48.0 kHz
Frame rate : 46.875 FPS (1024 SPF)
Compression mode : Lossy
Stream size : 42.8 MiB (24%)
Encoded date : UTC 2018-11-25 09:35:34
Tagged date : UTC 2018-11-25 10:26:03
Релиз от:
[Профиль] [ЛС]
Показать сообщения:    
Ответить на тему

Текущее время: 22-Мар 10:22

Часовой пояс: UTC + 3



Вы не можете начинать темы
Вы не можете отвечать на сообщения
Вы не можете редактировать свои сообщения
Вы не можете удалять свои сообщения
Вы не можете голосовать в опросах
Вы не можете прикреплять файлы к сообщениям
Вы не можете скачивать файлы