По законам военного времени [2 сезон: 1-8 серии из 8] (2018) WEB-DLRip от Files-x

Reply to topic
 
Author Message

papa1951deda ®

Gender: Male

Longevity: 9 months 28 days

Posts: 290

Location: Казахстан

Post 25-Nov-2018 18:42

[Quote]

По законам военного времени Год выпуска:2018
Жанр: Военный, драма, исторический, криминал
Выпущено: Россия, Украина, StarMedia
Режиссёр: Максим Мехеда
В ролях: Екатерина Климова, Евгений Воловенко, Максим Дрозд, Сергей Деньга, Алексей Шутов, Екатерина Соломатина, Павел Стонт, Дмитрий Сарансков, Светлана Зельбет, Андрей Клименков, Станислав Боклан, Виктория Литвиненко, Анатолий Зиновенко, Александр Панкратов-Чёрный
О фильме: Осень 1941 года. Чудом вырвавшиеся из киевского котла, следователи военной прокуратуры Рокотов, Мирский и Елагина прибывают в Харьков, где уже полным ходом идет эвакуация. У них на руках важные сведения о деятельности немецкой шпионской организации, которые нужно срочно передать в центр. Но неожиданный приказ руководства вынуждает их задержаться в Харькове. Ведь вместе с эвакуируемыми предприятиями, под видом беженцев, на восток движутся группы немецких диверсантов, цель которых – диверсии и саботажи на военных заводах, расположенных на Урале и в Западной Сибири. Пытаясь раскрыть каналы переправки лазутчиков в советский тыл, Рокотов с Елагиной узнают, что действующая в Харькове организация напрямую связана с киевской группой, раскрытой ими за несколько часов до сдачи города. А куратор обеих этих группировок занимает высокий пост в Главной военной прокуратуре в Москве.
Качество: WEB-DLRip
Видео: XviD, ~ 1600 Кбит/с, 720x400, 25 кадр/с
Аудио: AC3, 2 ch, 192 Кбит/с
Продолжительность: 8 x ~ 00:45:00
Перевод: Не требуется
Субтитры: Нет

Скриншоты

MediaInfo

General
Complete name : D:\моё видио\По законам военного времени 2 (2018).WEB-DLRip.Files-x\1.По законам военного времени 2 (2018).WEB-DLRip.Files-x.avi
Format : AVI
Format/Info : Audio Video Interleave
File size : 649 MiB
Duration : 52mn 16s
Overall bit rate : 1 735 Kbps
Writing application : VirtualDubMod 1.5.10.3 | www.virtualdub-fr.org || (build 2550/release)
Writing library : VirtualDubMod build 2550/release
Video
ID : 0
Format : MPEG-4 Visual
Format profile : Advanced Simple@L5
Format settings, BVOP : 1
Format settings, QPel : No
Format settings, GMC : No warppoints
Format settings, Matrix : Custom
Codec ID : XVID
Codec ID/Hint : XviD
Duration : 52mn 16s
Bit rate : 1 465 Kbps
Width : 720 pixels
Height : 400 pixels
Display aspect ratio : 16:9
Frame rate : 25.000 fps
Color space : YUV
Chroma subsampling : 4:2:0
Bit depth : 8 bits
Scan type : Progressive
Compression mode : Lossy
Bits/(Pixel*Frame) : 0.204
Stream size : 548 MiB (84%)
Writing library : XviD 73
Audio
ID : 1
Format : AC-3
Format/Info : Audio Coding 3
Mode extension : CM (complete main)
Format settings, Endianness : Big
Codec ID : 2000
Duration : 52mn 16s
Bit rate mode : Constant
Bit rate : 192 Kbps
Channel(s) : 2 channels
Channel positions : Front: L R
Sampling rate : 48.0 KHz
Bit depth : 16 bits
Compression mode : Lossy
Stream size : 71.8 MiB (11%)
Alignment : Split accross interleaves
Релиз от:
[Profile] [PM]
Display posts:    
Reply to topic

Current time is: 18-Sep 21:47

All times are UTC + 3



You cannot post new topics in this forum
You cannot reply to topics in this forum
You cannot edit your posts in this forum
You cannot delete your posts in this forum
You cannot vote in polls in this forum
You cannot attach files in this forum
You cannot download files in this forum