Discovery. Забытая инженерия / Abandoned Engineering [2 сезон: 1-14 серии из 14] (2018) HDTVRip 720p от GeneralFilm

Ответить на тему
 
Автор Сообщение

Starik60 ®

Пол: Мужской

Стаж: 4 месяца 8 дней

Сообщений: 119

Откуда: Москва, Россия

Создавать темы 17-Ноя-2018 18:33

[Цитировать]

Забытая инженерия / Abandoned Engineering
Год выпуска: 2018
Жанр: Документальный, научно-познавательный, исследования, история
Выпущено: США, Discovery Channel
О фильме: Одни из самых выдающихся сооружений и конструкций, которые ещё недавно считались воплощением смелой мечты, теперь лежат в руинах. Как и почему это произошло? Возможно ли возродить их? Разработчики и конструкторы расскажут об их прошлом, а новаторы и предприниматели постараются подарить этим проектам будущее. Вы увидите самые знаменитые заброшенные объекты, расположенные в разных уголках планеты. Многие из этих сооружений обрели вторую жизнь в совершенно ином качестве. Детальный экскурс в историю технических и инженерных конструкций, подсчёт материальных потерь, анализ масштабов экологического урона и социального ущерба от их строительства – всё это в новом сезоне.

Качество: HDTVRip 720p
Видео: MPEG-4 AVC, ~ 4000 Кбит/с, 1280x720
Аудио: MP2, 2 ch, 384 Кбит/с
Продолжительность: 14 х ~ 00:44:00
Перевод: Профессиональный (двухголосый, закадровый)

Скриншоты



MediaInfo

General
Unique ID : 309936833087504138649254535004847487758 (0xE92BA9AB5F332B4B6FA42EFC719A3B0E)
Complete name : H:\Раздачи 4\Забытая инженерия S02 720p GeneralFilm\01 Забытая инженерия GeneralFilm.mkv
Format : Matroska
Format version : Version 2
File size : 1.35 GiB
Duration : 43 min 58 s
Overall bit rate mode : Constant
Overall bit rate : 4 390 kb/s
Writing application : Lavf54.63.104
Writing library : Lavf54.63.104
Video
ID : 1
Format : AVC
Format/Info : Advanced Video Codec
Format profile : High@L4.1
Format settings : CABAC / 3 Ref Frames
Format settings, CABAC : Yes
Format settings, ReFrames : 3 frames
Codec ID : V_MPEG4/ISO/AVC
Duration : 43 min 58 s
Bit rate mode : Constant
Bit rate : 4 000 kb/s
Width : 1 280 pixels
Height : 720 pixels
Display aspect ratio : 16:9
Frame rate mode : Constant
Frame rate : 50.000 FPS
Standard : PAL
Color space : YUV
Chroma subsampling : 4:2:0
Bit depth : 8 bits
Scan type : Progressive
Bits/(Pixel*Frame) : 0.087
Stream size : 1.20 GiB (89%)
Default : No
Forced : No
Color range : Limited
Color primaries : BT.709
Transfer characteristics : BT.709
Matrix coefficients : BT.709
Audio
ID : 2
Format : MPEG Audio
Format version : Version 1
Format profile : Layer 2
Codec ID : A_MPEG/L2
Codec ID/Hint : MP2
Duration : 43 min 58 s
Bit rate mode : Constant
Bit rate : 384 kb/s
Channel(s) : 2 channels
Sampling rate : 48.0 kHz
Compression mode : Lossy
Delay relative to video : 4 ms
Stream size : 121 MiB (9%)
Language : English
Default : Yes
Forced : No
Благодарю за отличный постер ValkiriaGF
Релиз от:
[Профиль] [ЛС]
Показать сообщения:    
Ответить на тему

Текущее время: 20-Мар 13:13

Часовой пояс: UTC + 3



Вы не можете начинать темы
Вы не можете отвечать на сообщения
Вы не можете редактировать свои сообщения
Вы не можете удалять свои сообщения
Вы не можете голосовать в опросах
Вы не можете прикреплять файлы к сообщениям
Вы не можете скачивать файлы