По законам военного времени [1 сезон: 1-12 серии из 12] (2015) WEB-DLRip от Files-x

Ответить на тему
 
Автор Сообщение

papa1951deda ®

Пол: Мужской

Стаж: 4 месяца 4 дня

Сообщений: 202

Откуда: Казахстан

Создавать темы 25-Ноя-2018 18:57

[Цитировать]

По законам военного времени Год выпуска: 2015
Жанр: Военный, драма, исторический, криминальный фильм
Выпущено: Россия, Украина, StarMedia
Режиссёр: Максим Мехеда
В ролях: Евгений Воловенко, Екатерина Климова, Максим Дрозд, Сергей Сосновский, Валерий Сковронский, Игорь Петрусенко, Андрей Саминин, Пётр Крылов (III), Виталий Салий, Игорь Рубашкин, Валерий Шалыга, Михаил Жонин, Александра Сизоненко, Александр Панкратов-Чёрный
О фильме: Июль 1941 года. Фашисты рвутся к Киеву. Обстановка в городе накаляется с каждым днем, что добавляет работы лучшему следователю киевской военной прокуратуры Ивану Рокотову. Из Москвы неожиданно прибывает заместитель главного военного прокурора РККА Николай Мирский. Он создает особый отдел в военной прокуратуре фронта, в который входят Рокотов и бывший следователь Днепропетровского УГРО Светлана Елагина. Рокотову и Елагиной придется расследовать особо важные дела, действуя как на передовой, в Киевском укрепрайоне, так и в самом городе, где активизировавшийся преступный мир начинает объединяться с просачивающимися в город немецкими диверсантами. Да и некоторые представители Советской власти не прочь нагреть руки на страданиях народа.
Качество: WEB-DLRip
Видео: XviD, ~ 1600 Кбит/с, 720x400
Аудио: AC3, 2 ch, 192 Кбит/с
Продолжительность: 12 x ~ 00:45:00
Перевод: Не требуется
Субтитры: Нет

Скриншоты

MediaInfo

General
Complete name : D:\моё видио\Po.zakonam.voennovo.vremeni.2015.WEB-DLRip.Files-x\01.Po.zakonam.voennovo.vremeni.2015.WEB-DLRip.Files-x.avi
Format : AVI
Format/Info : Audio Video Interleave
File size : 598 MiB
Duration : 47mn 59s
Overall bit rate : 1 742 Kbps
Writing application : VirtualDubMod 1.5.10.3 | www.virtualdub-fr.org || (build 2550/release)
Writing library : VirtualDubMod build 2550/release
Video
ID : 0
Format : MPEG-4 Visual
Format profile : Advanced Simple@L5
Format settings, BVOP : 1
Format settings, QPel : No
Format settings, GMC : No warppoints
Format settings, Matrix : Custom
Codec ID : XVID
Codec ID/Hint : XviD
Duration : 47mn 59s
Bit rate : 1 540 Kbps
Width : 720 pixels
Height : 400 pixels
Display aspect ratio : 16:9
Frame rate : 25.000 fps
Color space : YUV
Chroma subsampling : 4:2:0
Bit depth : 8 bits
Scan type : Progressive
Compression mode : Lossy
Bits/(Pixel*Frame) : 0.214
Stream size : 528 MiB (88%)
Writing library : XviD 73
Audio
ID : 1
Format : AC-3
Format/Info : Audio Coding 3
Mode extension : CM (complete main)
Format settings, Endianness : Big
Codec ID : 2000
Duration : 47mn 59s
Bit rate mode : Constant
Bit rate : 192 Kbps
Channel(s) : 2 channels
Channel positions : Front: L R
Sampling rate : 48.0 KHz
Bit depth : 16 bits
Compression mode : Lossy
Stream size : 65.9 MiB (11%)
Alignment : Split accross interleaves
Interleave, duration : 40 ms (1.00 video frame)
Interleave, preload duration : 500 ms
Релиз от:

Релиз подготовлен R.G.Files-x

[Профиль] [ЛС]
Показать сообщения:    
Ответить на тему

Текущее время: 25-Мар 13:50

Часовой пояс: UTC + 3



Вы не можете начинать темы
Вы не можете отвечать на сообщения
Вы не можете редактировать свои сообщения
Вы не можете удалять свои сообщения
Вы не можете голосовать в опросах
Вы не можете прикреплять файлы к сообщениям
Вы не можете скачивать файлы