Штамм / The Strain [4 сезон: 1-10 серии из 10] (2017) WEB-DLRip от GeneralFilm | Newstudio

Reply to topic
 
Author Message

Starik60 ®

Gender: Male

Longevity: 7 months 5 days

Posts: 137

Location: Москва, Россия

Post 17-Nov-2018 18:56

[Quote]

Штамм / The Strain
Год выпуска: 2017
Жанр: Ужасы, фантастика, драма, вампиры, экранизация
Выпущено: США, Mirada
Режиссер: Гильермо Дель Торо, Дэвид Семел, Кит Гордон
В ролях: Дэвид Брэдли (I), Кори Столл, Миа Маэстро, Джонатан Хайд, Мигель Гомес, Энн Бетанкорт, Бен Хайленд, Николай Вич, Педро Мигель Арсе, Дрю Нельсон, Джо Веркилло, Джим Уотсон, Алекс Пэкстон, Джонатан Поттс, Рихард Заммель, Шон Эстин, Дэррин Бэйкер, Натали Браун, Дональд Бурда, Кевин Дюран, Хавьер Ботет, Кэтлин Чэлфант, Реджина Кинг
О фильме: Штамм» (англ. The Strain) —американский хоррор-сериал про вампиров, созданный по одноименному роману Гильермо Дель Торо и Чака Хогана. Самолет с пассажирами приземляется в аэропорту им. Кеннеди с выключенным светом и закрытыми дверями. Эпидемиолог доктор Эфраим Гудвевер и его команда отправляются на разведку. На борту они находят около двухсот трупов и четырех выживших. Ситуация ухудшается, когда тела умерших начинают исчезать из моргов. Гудвевер и небольшая группа помощников пытается бороться с древней угрозой, чтобы спасти не только себя и своих близких, но и весь город

Качество: WEB-DLRip
Видео: XviD, ~ 1536 Кбит/с, 720x400
Аудио 1 Rus: AC3, 6 ch, 384 Кбит/с
Аудио 2 Eng: AC3, 6 ch, 384 Кбит/с
Продолжительность: 10 x ~ 00:55:00
Перевод: Профессиональный (многоголосый, закадровый)-Newstudio

Скриншоты



MediaInfo

General
Complete name : D:\Раздачи\The Strain (Season 04) GeneralFilm\The.Strain.s04e01.WEBDLRip GeneralFilm.avi
Format : AVI
Format/Info : Audio Video Interleave
File size : 782 MiB
Duration : 47 min 14 s
Overall bit rate : 2 316 kb/s
Writing application : VirtualDubMod 1.5.10.3 | www.virtualdub-fr.org || (build 2550/release)
Writing library : VirtualDubMod build 2550/release
Video
ID : 0
Format : MPEG-4 Visual
Format profile : Advanced Simple@L5
Format settings : BVOP1 / Custom Matrix
Format settings, BVOP : 1
Format settings, QPel : No
Format settings, GMC : No warppoints
Format settings, Matrix : Custom
Codec ID : XVID
Codec ID/Hint : XviD
Duration : 47 min 14 s
Bit rate : 1 534 kb/s
Width : 720 pixels
Height : 400 pixels
Display aspect ratio : 16:9
Frame rate : 23.976 (24000/1001) FPS
Color space : YUV
Chroma subsampling : 4:2:0
Bit depth : 8 bits
Scan type : Progressive
Compression mode : Lossy
Bits/(Pixel*Frame) : 0.222
Stream size : 518 MiB (66%)
Writing library : XviD 73
Audio #1
ID : 1
Format : AC-3
Format/Info : Audio Coding 3
Commercial name : Dolby Digital
Codec ID : 2000
Duration : 47 min 14 s
Bit rate mode : Constant
Bit rate : 384 kb/s
Channel(s) : 6 channels
Channel layout : L R C LFE Ls Rs
Sampling rate : 48.0 kHz
Frame rate : 31.250 FPS (1536 SPF)
Bit depth : 16 bits
Compression mode : Lossy
Stream size : 130 MiB (17%)
Alignment : Split accross interleaves
Interleave, duration : 42 ms (1.00 video frame)
Interleave, preload duratio : 500 ms
Service kind : Complete Main
Audio #2
ID : 2
Format : AC-3
Format/Info : Audio Coding 3
Commercial name : Dolby Digital
Codec ID : 2000
Duration : 47 min 14 s
Bit rate mode : Constant
Bit rate : 384 kb/s
Channel(s) : 6 channels
Channel layout : L R C LFE Ls Rs
Sampling rate : 48.0 kHz
Frame rate : 31.250 FPS (1536 SPF)
Bit depth : 16 bits
Compression mode : Lossy
Stream size : 130 MiB (17%)
Alignment : Split accross interleaves
Interleave, duration : 42 ms (1.00 video frame)
Interleave, preload duratio : 500 ms
Service kind : Complete Main
Релиз от:
[Profile] [PM]
Display posts:    
Reply to topic

Current time is: 18-Jun 08:53

All times are UTC + 3



You cannot post new topics in this forum
You cannot reply to topics in this forum
You cannot edit your posts in this forum
You cannot delete your posts in this forum
You cannot vote in polls in this forum
You cannot attach files in this forum
You cannot download files in this forum