Скелет в шкафу [1-5 серии] (2018) WEBRip от Files-x

Reply to topic
 
Author Message

bond74 ®

Gender: Male

Longevity: 10 months 4 days

Posts: 633

Post 25-Nov-2018 21:02

[Quote]

Скелет в шкафу Год выпуска: 2018
Жанр: Мелодрама
Выпущено: Россия
Режиссер: Роман Иванов
В ролях: Алексей Субботин, Евгений Еськов, Светлана Фатина, Анастасия Тюфякина, Сергей Кириллов, Арсений Михеев
О фильме: "Скелет в шкафу" — это городские истории из жизни обычных людей, которые волею судеб попали в неожиданную ситуацию: они ненароком узнали чью-то сокровенную тайну или их собственный секрет стал известен кому-то из близких. Каждая серия — отдельный рассказ, основанный на реальных событиях. Главные герои в каждом из эпизодов разные, но объединяют их похожие интриги, отчаянные попытки выпутаться из неловкой ситуации, кого-то выслеживают и обязательно в чем-то подозревают. Повествуя свою историю, главный герой вспоминает то, что с ним произошло, дает развернутые комментарии, записанные в формате селфи, и делится со зрителями своими переживаниями. Подобная форма восстанавливает цепочку событий, придает проекту форму откровенной исповеди и делает его более живым и эмоциональным.
Качество: WEBRip
Видео: XviD, ~ 1600 Кбит/с, 720x400, 25 кадр/с
Аудио: AC3, 2 ch, 192 Кбит/с
Продолжительность: 5 x ~ 00:28:00
Перевод: Не требуется
Субтитры: нет

Скриншоты

MediaInfo

General
Complete name : H:\Скелет в шкафу (2018) WEB-DLRip. Files-x\01. Скелет в шкафу.WEB-DLRip. Files-x.avi
Format : AVI
Format/Info : Audio Video Interleave
File size : 363 MiB
Duration : 28mn 12s
Overall bit rate : 1 802 Kbps
Writing application : VirtualDubMod 1.5.10.3 | www.virtualdub-fr.org || (build 2550/release)
Writing library : VirtualDubMod build 2550/release
Video
ID : 0
Format : MPEG-4 Visual
Format profile : Advanced Simple@L5
Format settings, BVOP : 1
Format settings, QPel : Yes
Format settings, GMC : No warppoints
Format settings, Matrix : Default (MPEG)
Codec ID : XVID
Codec ID/Hint : XviD
Duration : 28mn 12s
Bit rate : 1 600 Kbps
Width : 720 pixels
Height : 400 pixels
Display aspect ratio : 16:9
Frame rate : 25.000 fps
Color space : YUV
Chroma subsampling : 4:2:0
Bit depth : 8 bits
Scan type : Progressive
Compression mode : Lossy
Bits/(Pixel*Frame) : 0.222
Stream size : 323 MiB (89%)
Writing library : XviD 73
Audio
ID : 1
Format : AC-3
Format/Info : Audio Coding 3
Mode extension : CM (complete main)
Codec ID : 2000
Duration : 28mn 12s
Bit rate mode : Constant
Bit rate : 192 Kbps
Channel(s) : 2 channels
Channel positions : Front: L R
Sampling rate : 48.0 KHz
Bit depth : 16 bits
Compression mode : Lossy
Stream size : 38.7 MiB (11%)
Alignment : Split accross interleaves
Interleave, duration : 40 ms (1.00 video frame)
Interleave, preload duration : 500 ms
Релиз от:


Last edited by bond74 on 2018-11-25 22:39; edited 1 time in total
[Profile] [PM]
Display posts:    
Reply to topic

Current time is: 19-Sep 00:03

All times are UTC + 3



You cannot post new topics in this forum
You cannot reply to topics in this forum
You cannot edit your posts in this forum
You cannot delete your posts in this forum
You cannot vote in polls in this forum
You cannot attach files in this forum
You cannot download files in this forum