Скелет в шкафу [1-104 серии] (2017) WEBRip от Files-x

Reply to topic
 
Author Message

bond74 ®

Gender: Male

Longevity: 2 years 7 months

Posts: 1193

Post 25-Nov-2018 21:02

[Quote]

Скелет в шкафу Год выпуска: 2017
Жанр: Мелодрама
Выпущено: Россия, "Федеральное агентство новостей"
Режиссер: Роман Иванов
В ролях: Алексей Субботин, Евгений Еськов, Светлана Фатина, Анастасия Тюфякина, Сергей Кириллов, Арсений Михеев
О фильме: "Скелет в шкафу" — это городские истории из жизни обычных людей, которые волею судеб попали в неожиданную ситуацию: они ненароком узнали чью-то сокровенную тайну или их собственный секрет стал известен кому-то из близких. Каждая серия — отдельный рассказ, основанный на реальных событиях. Главные герои в каждом из эпизодов разные, но объединяют их похожие интриги, отчаянные попытки выпутаться из неловкой ситуации, кого-то выслеживают и обязательно в чем-то подозревают. Повествуя свою историю, главный герой вспоминает то, что с ним произошло, дает развернутые комментарии, записанные в формате селфи, и делится со зрителями своими переживаниями. Подобная форма восстанавливает цепочку событий, придает проекту форму откровенной исповеди и делает его более живым и эмоциональным.
Качество: WEBRip
Видео: XviD, ~ 1600 Кбит/с, 720x400, 25 кадр/с
Аудио: AC3, 2 ch, 192 Кбит/с
Продолжительность: 95 x ~ 00:28:00
Перевод: Не требуется
Субтитры: нет

Скриншоты


MediaInfo

General
Complete name : H:\Скелет в шкафу (2018) WEB-DLRip. Files-x\01. Скелет в шкафу.WEB-DLRip. Files-x.avi
Format : AVI
Format/Info : Audio Video Interleave
File size : 363 MiB
Duration : 28mn 12s
Overall bit rate : 1 802 Kbps
Writing application : VirtualDubMod 1.5.10.3 | www.virtualdub-fr.org || (build 2550/release)
Writing library : VirtualDubMod build 2550/release
Video
ID : 0
Format : MPEG-4 Visual
Format profile : Advanced Simple@L5
Format settings, BVOP : 1
Format settings, QPel : Yes
Format settings, GMC : No warppoints
Format settings, Matrix : Default (MPEG)
Codec ID : XVID
Codec ID/Hint : XviD
Duration : 28mn 12s
Bit rate : 1 600 Kbps
Width : 720 pixels
Height : 400 pixels
Display aspect ratio : 16:9
Frame rate : 25.000 fps
Color space : YUV
Chroma subsampling : 4:2:0
Bit depth : 8 bits
Scan type : Progressive
Compression mode : Lossy
Bits/(Pixel*Frame) : 0.222
Stream size : 323 MiB (89%)
Writing library : XviD 73
Audio
ID : 1
Format : AC-3
Format/Info : Audio Coding 3
Mode extension : CM (complete main)
Codec ID : 2000
Duration : 28mn 12s
Bit rate mode : Constant
Bit rate : 192 Kbps
Channel(s) : 2 channels
Channel positions : Front: L R
Sampling rate : 48.0 KHz
Bit depth : 16 bits
Compression mode : Lossy
Stream size : 38.7 MiB (11%)
Alignment : Split accross interleaves
Interleave, duration : 40 ms (1.00 video frame)
Interleave, preload duration : 500 ms

Раздача ведётся путём добавления новых серий

Внимание! Раздача ведётся путём добавления новых серий; при каждом добавлении создаётся новый торрент.
Чтобы начать докачку новой серии, пользователям необходимо сделать следующее:
1. Остановить скачивание;
2. Удалить старый торрент у себя из клиента (старые серии удалять не надо);
3. Скачать новый торрент и запустить его у себя в клиенте вместо старого, при этом указать клиенту путь в старую папку куда и должно происходить скачивание новых серий. Ваш клиент при этом должен произвести хеширование (проверку) старой папки и будет докачивать только те серии, которых у вас ещё нет. Старые серии при этом не удаляются, а продолжают раздаваться! Eсли вы уже удалили старые серии, то предотвратить повторную закачку старых серий можно, отжав галочку в соответствующих местах при запуске нового торрента.
Релиз от:

Release was prepared by RG Files-x



Last edited by bond74 on 2018-11-25 22:39; edited 1 time in total
[Profile] [PM]
Display posts:    
Reply to topic

Current time is: 20-Jun 16:24

All times are UTC + 3



You cannot post new topics in this forum
You cannot reply to topics in this forum
You cannot edit your posts in this forum
You cannot delete your posts in this forum
You cannot vote in polls in this forum
You cannot attach files in this forum
You cannot download files in this forum