Подъем с глубины [1-4 серии из 4] (2018) WEB-DLRip от GeneralFilm

Ответить на тему
 
Автор Сообщение

vsobbol ®

Пол: Мужской

Стаж: 4 месяца 9 дней

Сообщений: 143

Откуда: Донецк

Создавать темы 25-Ноя-2018 21:41

[Цитировать]

Подъем с глубины
Год выпуска: 2018
Жанр: детектив, триллер
Выпущено: Россия,
Режиссер: Телекомпания «Свэлл фильм»
В ролях: Анастасия Городенцева, Алексей Комашко, Андрей Давидюк, Наталия Лесниковская, Анна Попова, Кирилл Запорожский, Дмитрий Мухамадеев
О фильме: Вера Соловьёва приходит в себя после семи лет комы, в которую попала в результате несчастного случая при занятиях дайвингом. Она обнаруживает, что за время её отсутствия всё поменялось: муж женился на другой, её ребёнок считает эту женщину матерью, а сестра мужа стала опасной сумасшедшей. Вере приходится возвращать свою жизнь и выяснять, кто и почему эту жизнь у неё отнял...
Качество: WEB-DLRip
Видео: XviD build 73, 720x400 (16:9), 25.000 fps, ~ 1450 Kbps (~ 0.200 bit/pixel)
Аудио: 48.0 kHz, AC3, 2/0 ch, 192 kbps
Продолжительность: 4 x ~ 00:47:00
Перевод: Не требуется
Cубтитры: нет

Скриншоты

MediaInfo

General
Complete name : D:RazdachiPodjem.S.Glubiny.2018.XviD.WEB-DLRip.GeneralFilmPodjem.S.Glubiny.e01.avi
Format : AVI
Format/Info : Audio Video Interleave
File size : 557 MiB
Duration : 47 min 16 s
Overall bit rate : 1 648 kb/s
Writing application : VirtualDubMod 1.5.10.3 | www.virtualdub-fr.org || (build 2550/release)
Writing library : VirtualDubMod build 2550/release
Video
ID : 0
Format : MPEG-4 Visual
Format profile : Advanced Simple@L5
Format settings, BVOP : 1
Format settings, QPel : No
Format settings, GMC : No warppoints
Format settings, Matrix : Custom
Codec ID : XVID
Codec ID/Hint : XviD
Duration : 47 min 16 s
Bit rate : 1 446 kb/s
Width : 720 pixels
Height : 400 pixels
Display aspect ratio : 16:9
Frame rate : 25.000 FPS
Color space : YUV
Chroma subsampling : 4:2:0
Bit depth : 8 bits
Scan type : Progressive
Compression mode : Lossy
Bits/(Pixel*Frame) : 0.201
Stream size : 489 MiB (88%)
Writing library : XviD 73
Audio
ID : 1
Format : AC-3
Format/Info : Audio Coding 3
Format settings, Endianness : Big
Codec ID : 2000
Duration : 47 min 16 s
Bit rate mode : Constant
Bit rate : 192 kb/s
Channel(s) : 2 channels
Channel positions : Front: L R
Sampling rate : 48.0 kHz
Frame rate : 31.250 FPS (1536 SPF)
Bit depth : 16 bits
Compression mode : Lossy
Stream size : 64.9 MiB (12%)
Alignment : Split accross interleaves
Interleave, duration : 40 ms (1.00 video frame)
Interleave, preload duratio : 500 ms
Service kind : Complete Main
Релиз от:
[Профиль] [ЛС]
Показать сообщения:    
Ответить на тему

Текущее время: 25-Мар 13:51

Часовой пояс: UTC + 3



Вы не можете начинать темы
Вы не можете отвечать на сообщения
Вы не можете редактировать свои сообщения
Вы не можете удалять свои сообщения
Вы не можете голосовать в опросах
Вы не можете прикреплять файлы к сообщениям
Вы не можете скачивать файлы