Цвет ночи Color of Night (1994) BDRip

Reply to topic
 
Author Message

agent00007 ®

Longevity: 5 months 23 days

Posts: 1

Post 26-Nov-2018 00:23

[Quote]

Цвет ночи / Color of Night
Год выпуска: 1994
Жанр: триллер, мелодрама, детектив
Выпущено: США, Cinergi Pictures Entertainment, Hollywood Pictures
Режиссер: Ричард Раш
В ролях: Брюс Уиллис, Джейн Марч, Рубен Блэйдс, Лесли Энн Уоррен, Скотт Бакула, Брэд Дуриф, Лэнс Хенриксен, Кевин Дж. О’Коннор, Эндрю Лоури, Эрик Ла Салль, Джефф Кори, Кэтлин Уилхойт, Ширли Найт, Джон Бауэр, Эви Корейн, Стивен Р. Барнетт, Роберта Сторм
О фильме: Брюс Уиллис в роли нью-йоркского психолога, потерявшего пациентку — она выбросилась в окно прямо во время сеанса. Чтобы прийти в себя, он едет в Лос-Анджелес к своему другу, с которым они вместе учились. Там он присутствует на групповом сеансе психотерапии, а ночью друга зверски убивают ножом с нанесением множества ножевых ранений. Не без участия полиции герой Уиллиса берется вести дальше эту группу, так как следователь подозревает, что убийцей может быть один из больных…
Качество: BDRip
Видео: XviD, 1843 Кбит/с, 704x384, 23.976 Кадр/с
Аудио: Аудио #1: AC3, 2 ch, 192 Кбит/с | Профессиональный многоголосый (Нева-1) Аудио #2: AC3, 2 ch, 192 Кбит/с | Профессиональный многоголосый (РенТВ)
Продолжительность: 02:19:18
Перевод: Профессиональный (многоголосый закадровый)

Скриншоты



MediaInfo

Общее
Полное имя : Color.of.Night.1994.BDRip.avi
Формат : AVI
Формат/Информация : Audio Video Interleave
Профиль формата : OpenDML
Размер файла : 2,18 Гбайт
Продолжительность : 2 ч. 19 м.
Общий поток : 2245 Кбит/сек
Программа кодирования : VirtualDubMod 1.5.10.2 (build 2540/release)
Библиотека кодирования : VirtualDubMod build 2540/release
Видео
Идентификатор : 0
Формат : MPEG-4 Visual
Профиль формата : Advanced Simple@L5
Параметр BVOP формата : 1
Параметр QPel формата : Нет
Параметр GMC формата : Без точки перехода
Параметр матрицы формата : Выборочная
Идентификатор кодека : XVID
Идентификатор кодека/Подсказка : XviD
Продолжительность : 2 ч. 19 м.
Битрейт : 1843 Кбит/сек
Ширина : 704 пикселя
Высота : 384 пикселя
Соотношение сторон : 1,85:1
Частота кадров : 23,976 (24000/1001) кадра/сек
Цветовое пространство : YUV
Субдискретизация насыщенности : 4:2:0
Битовая глубина : 8 бит
Тип развёртки : Прогрессивная
Метод сжатия : С потерями
Бит/(Пиксели*Кадры) : 0.284
Размер потока : 1,79 Гбайт (82%)
Библиотека кодирования : XviD 65
Аудио #1
Идентификатор : 1
Формат : AC-3
Формат/Информация : Audio Coding 3
Параметр Endianness формата : Big
Идентификатор кодека : 2000
Продолжительность : 2 ч. 19 м.
Вид битрейта : Постоянный
Битрейт : 192 Кбит/сек
Каналы : 2 канала
Расположение каналов : Front: L R
Частота : 48,0 КГц
Частота кадров : 31,250 кадров/сек (1536 spf)
Битовая глубина : 16 бит
Метод сжатия : С потерями
Размер потока : 191 Мбайт (9%)
Выравнивание : Разделение по промежуткам
Продолжительность промежутка : 42 мс. (1,00 видеокадр)
Время предзагрузки промежутка : 500 мс.
ServiceKind/String : Complete Main
Аудио #2
Идентификатор : 2
Формат : AC-3
Формат/Информация : Audio Coding 3
Параметр Endianness формата : Big
Идентификатор кодека : 2000
Продолжительность : 2 ч. 19 м.
Вид битрейта : Постоянный
Битрейт : 192 Кбит/сек
Каналы : 2 канала
Расположение каналов : Front: L R
Частота : 48,0 КГц
Частота кадров : 31,250 кадров/сек (1536 spf)
Битовая глубина : 16 бит
Метод сжатия : С потерями
Размер потока : 191 Мбайт (9%)
Выравнивание : Разделение по промежуткам
Продолжительность промежутка : 42 мс. (1,00 видеокадр)
Время предзагрузки промежутка : 500 мс.
ServiceKind/String : Complete Main
[Profile] [PM]
Display posts:    
Reply to topic

Current time is: 19-May 14:39

All times are UTC + 3



You cannot post new topics in this forum
You cannot reply to topics in this forum
You cannot edit your posts in this forum
You cannot delete your posts in this forum
You cannot vote in polls in this forum
You cannot attach files in this forum
You cannot download files in this forum