Stand Up [8 сезон: 1-19 выпуски] (2018) WEBRip 720p от Files-x

Ответить на тему
 
Автор Сообщение

bond74 ®

Пол: Мужской

Стаж: 4 месяца 7 дней

Сообщений: 267

Создавать темы 26-Ноя-2018 01:43

[Цитировать]

Stand Up Год выпуска: 2018
Жанр: ТВ-шоу, юмор
Выпущено: Россия, ТНТ
В ролях: Руслан Белый, Слава Комиссаренко, Юлия Ахмедова, Дмитрий Романов, Стас Старовойтов, Тимур Каргинов, Виктор Комаров, Александр Шаляпин
Ведущий: Руслан Белый
О фильме: Stand Up - это взгляд на наши жизненные повседневные ситуации. Это история, которую рассказывает человек на сцене, - обычно очень откровенную. Это правда жизни. Это что-то современное, что-то новое. Это что-то невообразимо оригинальное, яркое, интересное и обязательно смешное. Встречайте...
Качество: WEBRip 720p
Видео: MPEG-4 AVC, ~ 3507 Кбит/с, 1280х720, 25 кадр/с
Аудио: AC3, 2 ch, 192 Кбит/с
Продолжительность: 19 x ~ 00:48:00
Перевод: Не требуется
Субтитры: нет

Скриншоты

MediaInfo

General
General
Unique ID : 205886917628468407238006719467912511411 (0x9AE460C36ABB3FC2ADC5E4434D593FB3)
Complete name : H:\шоу\Stand Up (2018) WEB-DL 720p от Files-x\03. Stand Up.WEB-DL 720p от Files-x.mkv
Format : Matroska
File size : 1.24 GiB
Duration : 46mn 52s
Overall bit rate : 3 774 Kbps
Encoded date : UTC 2018-09-10 08:57:54
Writing application : mkvmerge v7.8.0 ('River Man') 32bit built on Apr 3 2015 12:11:22
Writing library : libebml v1.3.1 + libmatroska v1.4.2
Video
ID : 1
Format : AVC
Format/Info : Advanced Video Codec
Format profile : High@L3.1
Format settings, CABAC : Yes
Format settings, ReFrames : 1 frame
Codec ID : V_MPEG4/ISO/AVC
Duration : 46mn 52s
Bit rate : 3 507 Kbps
Width : 1 280 pixels
Height : 720 pixels
Display aspect ratio : 16:9
Frame rate : 25.000 fps
Standard : Component
Color space : YUV
Chroma subsampling : 4:2:0
Bit depth : 8 bits
Scan type : Progressive
Bits/(Pixel*Frame) : 0.152
Stream size : 1.15 GiB (93%)
Audio
ID : 2
Format : AC-3
Format/Info : Audio Coding 3
Mode extension : CM (complete main)
Codec ID : A_AC3
Duration : 46mn 52s
Bit rate mode : Constant
Bit rate : 192 Kbps
Channel(s) : 2 channels
Channel positions : Front: L R
Sampling rate : 44.1 KHz
Bit depth : 16 bits
Compression mode : Lossy
Delay relative to video : 9ms
Stream size : 64.4 MiB (5%)
Релиз от:

Релиз подготовлен R.G.Files-x

[Профиль] [ЛС]
Показать сообщения:    
Ответить на тему

Текущее время: 22-Мар 10:27

Часовой пояс: UTC + 3



Вы не можете начинать темы
Вы не можете отвечать на сообщения
Вы не можете редактировать свои сообщения
Вы не можете удалять свои сообщения
Вы не можете голосовать в опросах
Вы не можете прикреплять файлы к сообщениям
Вы не можете скачивать файлы