Новый Comedy Club [1-15 выпуски] (2018) WEBRip 720p от Files-x

Reply to topic
 
Author Message

bond74 ®

Gender: Male

Longevity: 6 months 8 days

Posts: 440

Post 26-Nov-2018 09:33

[Quote]

Новый Comedy Club Год выпуска: 2018
Жанр: ТВ-шоу, юмор
Выпущено: Россия, ТНТ
Ведущий: Гарик Мартиросян, Павел Воля, Тимур Батрутдинов, Александр Ревва, Гавриил Гордеев, Олег Верещагин (I), Дмитрий Сорокин, Зураб Матуа, Андрей Аверин, Алексей Лихницкий, Роман Юнусов, Антон Лирник, Андрей Молочный, Александр Незлобин, Дмитрий Хрусталёв, Виктор Васильев (III), Сергей Бессмертный, Игорь Меерсон, Семён Слепаков
О фильме: Невероятная энергетика, уютная атмосфера, гениальный юмор – все это слагаемые успеха самого успешного, модного, смешного и талантливого шоу молодых юмористов, которые никогда не придерживаются никаких правил и границ.
Качество: WEBRip 720p
Видео: MPEG-4 AVC, ~ 3518 Кбит/с, 1280x720, 25 кадр/с
Аудио: AC3, 2 ch, 192 Кбит/с
Продолжительность: 15 х ~ 01:08:13
Перевод: Не требуется
Субтитры: нет

Скриншоты

MediaInfo

General
General
Unique ID : 200588542831946971191505806534963450910 (0x96E7F2B79B211FCD88660B27F00D541E)
Complete name : H:\шоу\Comedy Club (2018) 720\03. Comedy Club..WEB-DL 720p. Files-x.mkv
Format : Matroska
File size : 1.32 GiB
Duration : 49mn 47s
Overall bit rate : 3 785 Kbps
Encoded date : UTC 2018-09-22 09:54:10
Writing application : mkvmerge v7.8.0 ('River Man') 32bit built on Apr 3 2015 12:11:22
Writing library : libebml v1.3.1 + libmatroska v1.4.2
Video
ID : 1
Format : AVC
Format/Info : Advanced Video Codec
Format profile : High@L3.1
Format settings, CABAC : Yes
Format settings, ReFrames : 1 frame
Codec ID : V_MPEG4/ISO/AVC
Duration : 49mn 47s
Bit rate : 3 518 Kbps
Width : 1 280 pixels
Height : 720 pixels
Display aspect ratio : 16:9
Frame rate : 25.000 fps
Standard : Component
Color space : YUV
Chroma subsampling : 4:2:0
Bit depth : 8 bits
Scan type : Progressive
Bits/(Pixel*Frame) : 0.153
Stream size : 1.22 GiB (93%)
Audio
ID : 2
Format : AC-3
Format/Info : Audio Coding 3
Mode extension : CM (complete main)
Codec ID : A_AC3
Duration : 49mn 47s
Bit rate mode : Constant
Bit rate : 192 Kbps
Channel(s) : 2 channels
Channel positions : Front: L R
Sampling rate : 44.1 KHz
Bit depth : 16 bits
Compression mode : Lossy
Delay relative to video : 9ms
Stream size : 68.4 MiB (5%)
Релиз от:
[Profile] [PM]

Alone_Kedr

Gender: Male

Longevity: 5 months 8 days

Posts: 8

Location: СССР

Post 02-Jan-2019 21:36 (after 1 month 6 days)

[Quote]

Вот если бы в названии файла была дата выхода выпуска, или прилагался список "№ - дата", было бы чудесно...
[Profile] [PM]
Display posts:    
Reply to topic

Current time is: 23-May 08:50

All times are UTC + 3



You cannot post new topics in this forum
You cannot reply to topics in this forum
You cannot edit your posts in this forum
You cannot delete your posts in this forum
You cannot vote in polls in this forum
You cannot attach files in this forum
You cannot download files in this forum