Discovery. Махинаторы / Wheeler Dealers [14 сезон: 1-9 серии из 9] (2017) HDTVRip 720p от GeneralFilm

Ответить на тему
 
Автор Сообщение

Starik60 ®

Пол: Мужской

Стаж: 4 месяца 9 дней

Сообщений: 119

Откуда: Москва, Россия

Создавать темы 26-Ноя-2018 11:33

[Цитировать]

Махинаторы / Wheeler Dealers
Год выпуска: 2017
Жанр: Документальный, история, автомобилестроение
Выпущено: Великобритания, Attaboy TV LTD for Discovery Channel
Режиссер: Ричард Хили, Уоррен Грин, Дэниэл Аллум, Майкл Вуд, Эд Чайна
В ролях: Майк Брюэр, Энт Энстед
О фильме: Торговец автомобилями Майк Брюер и талантливый механик Энт Энстед взвалили на себя титанический труд: находить и восстанавливать классические автомобили, чтобы выгодно продавать их в своем магазине в Лос-Анжелесе. Майк взял на себя непростую задачу поиска машин, на которых можно заработать, а Энт делает все возможное, чтобы вновь поставить их на колеса. Команда прочесывает как солнечные пляжи на юге Калифорнии, так и самые холодные уголки штата Мэн, чтобы найти экземпляр, который можно купить, отреставрировать, испытать и продать с хорошей наценкой. Какие сокровища попадутся им на пути во время этих эпических приключений? Узнаем совсем скоро!

Качество: HDTVRip 720p
Видео: MPEG-4 AVC, ~ 4000 Кбит/с, 1280x720
Аудио: MP2, 2 ch, 192 Кбит/с
Продолжительность: 9 x ~ 00:44:00
Перевод: Дублированный

Скриншоты

MediaInfo

General
Unique ID : 13488095024915853935509547684791093293 (0xA25B66D9DF35754C050F93C8874882D)
Complete name : H:\Раздачи 3\Махинаторы S.14.720p. GeneralFilm\01 Махинаторы s14.GentalFilm.mkv
Format : Matroska
Format version : Version 2
File size : 1.28 GiB
Duration : 43 min 47 s
Overall bit rate mode : Constant
Overall bit rate : 4 198 kb/s
Writing application : Lavf54.63.104
Writing library : Lavf54.63.104
Video
ID : 1
Format : AVC
Format/Info : Advanced Video Codec
Format profile : High@L4.1
Format settings : CABAC / 3 Ref Frames
Format settings, CABAC : Yes
Format settings, ReFrames : 3 frames
Codec ID : V_MPEG4/ISO/AVC
Duration : 43 min 47 s
Bit rate mode : Constant
Bit rate : 4 000 kb/s
Width : 1 280 pixels
Height : 720 pixels
Display aspect ratio : 16:9
Frame rate mode : Constant
Frame rate : 50.000 FPS
Standard : PAL
Color space : YUV
Chroma subsampling : 4:2:0
Bit depth : 8 bits
Scan type : Progressive
Bits/(Pixel*Frame) : 0.087
Stream size : 1.20 GiB (93%)
Default : No
Forced : No
Color range : Limited
Color primaries : BT.709
Transfer characteristics : BT.709
Matrix coefficients : BT.709
Audio
ID : 2
Format : MPEG Audio
Format version : Version 1
Format profile : Layer 2
Codec ID : A_MPEG/L2
Codec ID/Hint : MP2
Duration : 43 min 47 s
Bit rate mode : Constant
Bit rate : 192 kb/s
Channel(s) : 2 channels
Sampling rate : 48.0 kHz
Compression mode : Lossy
Delay relative to video : 16 ms
Stream size : 60.1 MiB (5%)
Language : English
Default : Yes
Forced : No

Название серий

01.1995 Ford Escort RS Cosworth
02. 2017 1982 Toyota Supra
03. 2017 1973 Ford Mustang Mach 1
04. Сааб 96 1973 года.
05. Mitsubishi 3000GT VR-4.
06. Ford Ranchero.
07. Микроавтобус "Dodge A100".
08. Austin-Healey.
09. Лучшие моменты программы.
Благодарю за отличный постер ValkiriaGF
Релиз от:
[Профиль] [ЛС]
Показать сообщения:    
Ответить на тему

Текущее время: 22-Мар 10:26

Часовой пояс: UTC + 3



Вы не можете начинать темы
Вы не можете отвечать на сообщения
Вы не можете редактировать свои сообщения
Вы не можете удалять свои сообщения
Вы не можете голосовать в опросах
Вы не можете прикреплять файлы к сообщениям
Вы не можете скачивать файлы