Движение вверх (2017) WEB-DL 720p | iTunes

Reply to topic
 
Author Message

Monk ®

Gender: Male

Longevity: 7 months 5 days

Posts: 6994

Location: Казань

Post 26-Nov-2018 11:49

[Quote]

Движение вверх Год выпуска: 2017
Жанр: Спорт, драма
Выпущено: Россия, Vice Films
Режиссер: Антон Мегердичев
В ролях: Владимир Машков, Андрей Смоляков, Иван Колесников, Кирилл Зайцев, Джон Сэвэдж, Марат Башаров, Александра Ревенко, Виктория Толстоганова, Сергей Гармаш, Джеймс Тратас
О фильме: Есть победы, которые меняют ход истории. Победы духа, победы страны, победы всего мира. Таким триумфом стали легендарные «три секунды» — выигрыш сборной СССР по баскетболу на роковой мюнхенской Олимпиаде 1972г. Впервые за 36 лет была повержена «непобедимая» команда США. Никто даже помыслить не мог о том, что это возможно — обыграть великолепных непогрешимых американцев на Олимпийских играх! Никто, кроме советских баскетболистов (русских и грузин, украинцев и казахов, белорусов и литовцев).

Качество: WEB-DL 720p
Видео: MPEG-4 AVC, 3907 Кбит/с, 960x538@1280x538, 25 кадр/с
Аудио: АС3, 6 ch, 384 Кбит/с
Продолжительность: 02:08:30
Перевод: Не требуется [iTunes]

Скриншоты



MediaInfo

General
Уникальный идентификатор : 200339356309036241811518903362001713726 (0x96B7F4DF826BDE37A66D2DB34F4A3A3E)
Полное имя : D:\ФИЛЬМЫ\DVIZHENIE_VVERH_WEB_DL_720p-BLUEBIRD.mkv
Формат : Matroska
Версия формата : Version 4 / Version 2
Размер файла : 3.93 GiB
Продолжительность : 2 h 8 min
Общий поток : 4 379 kb/s
Название фильма : DVIZHENIE_VVERH_WEB_DL_720p-BLUEBIRD
Дата кодирования : UTC 2018-05-16 18:19:04
Программа кодирования : mkvmerge v6.9.1 ('Blue Panther') 32bit built on Apr 18 2014 18:15:44
Библиотека кодирования : libebml v1.3.0 + libmatroska v1.4.1
Video
Идентификатор : 1
Формат : AVC
Формат/Информация : Advanced Video Codec
Профиль формата : Main@L3.1
Настройки формата : 2 Ref Frames
Параметр CABAC формата : No
Параметр RefFrames формата : 2 frames
Идентификатор кодека : V_MPEG4/ISO/AVC
Продолжительность : 2 h 8 min
Битрейт : 3 907 kb/s
Ширина : 960 pixels
Высота : 538 pixels
Соотношение сторон : 2.40:1
Режим частоты кадров : Constant
Частота кадров : 25.000 FPS
Цветовое пространство : YUV
Субдискретизация насыщенности : 4:2:0
Битовая глубина : 8 bits
Тип развёртки : Progressive
Бит/(Пиксели*Кадры) : 0.303
Размер потока : 3.51 GiB (89%)
Заголовок : DVIZHENIE_VVERH_WEB_DL_720p-BLUEBIRD
Язык : English
Default : Yes
Forced : No
Цветовой диапазон : Limited
Основные цвета : BT.709
Характеристики трансфера : BT.709
Коэффициенты матрицы : BT.709
Audio
Идентификатор : 2
Формат : AC-3
Формат/Информация : Audio Coding 3
Идентификатор кодека : A_AC3
Продолжительность : 2 h 8 min
Вид битрейта : Constant
Битрейт : 384 kb/s
Каналы : 6 channels
Расположение каналов : Front: L C R, Side: L R, LFE
Частота : 48.0 kHz
Частота кадров : 31.250 FPS (1536 SPF)
Битовая глубина : 16 bits
Метод сжатия : Lossy
Размер потока : 353 MiB (9%)
Заголовок : [ORIGINAL] DD 5.1 @ 384 kbps (iTunes)
Язык : Russian
ServiceKind/String : Complete Main
Default : Yes
Forced : No
Menu
00:00:00.000 : en:Глава 1
00:07:33.680 : en:Глава 2
00:13:14.360 : en:Глава 3
00:19:08.600 : en:Глава 4
00:26:01.840 : en:Глава 5
00:32:55.680 : en:Глава 6
00:40:11.120 : en:Глава 7
00:48:20.000 : en:Глава 8
00:55:06.920 : en:Глава 9
01:02:29.480 : en:Глава 10
01:09:07.200 : en:Глава 11
01:15:20.640 : en:Глава 12
01:19:31.240 : en:Глава 13
01:25:14.760 : en:Глава 14
01:30:21.640 : en:Глава 15
01:37:04.000 : en:Глава 16
01:42:57.640 : en:Глава 17
01:47:46.920 : en:Глава 18
01:54:38.400 : en:Глава 19
[Profile] [PM]
Display posts:    
Reply to topic

Current time is: 20-Jun 11:17

All times are UTC + 3



You cannot post new topics in this forum
You cannot reply to topics in this forum
You cannot edit your posts in this forum
You cannot delete your posts in this forum
You cannot vote in polls in this forum
You cannot attach files in this forum
You cannot download files in this forum