Discovery. Махинаторы / Wheeler Dealers [15 сезон: 1-9 серии из 9] (2018) HDTVRip 720p от GeneralFilm

Reply to topic
 
Author Message

Starik60 ®

Gender: Male

Longevity: 8 months 4 days

Posts: 145

Location: Москва, Россия

Post 26-Nov-2018 11:50

[Quote]

Махинаторы / Wheeler Dealers
Год выпуска: 2018
Жанр: Документальный, история, автомобилестроение
Выпущено: Великобритания, Attaboy TV LTD for Discovery Channel
Режиссер: Ричард Хили, Уоррен Грин, Дэниэл Аллум, Майкл Вуд, Эд Чайна
В ролях: Майк Брюэр, Энт Энстед
О фильме: Блистательный автодилер Майк Брюер и талантливый механик Энт Энстед опять берутся за работу! Это значит, что всех зрителей Discovery Channel ждут новые автовариации истории о Золушке, где невзрачные старые машины получат второе рождение и превратятся в завидные авто! Каждый из мастеров действует в своем амплуа. Майк подыскивает подходящие машины, а Энт делает все возможное, чтобы вновь поставить их на колеса. В новых сериях Майк и Энт будут осваивать европейский рынок спортивных автомобилей. Они поработают над «Opel GT 1900» 1969 года, у которого целый ряд проблем, включая вмятины на кузове и неисправные тормоза. Парни также покупают знаменитый американский джип «Grand Wagoneer» 1988 года – машина изрядно потрепана, но может принести большие деньги. Какой бы трудной ни была задача, Майк и Энт готовы выкладываться по полной ради хорошей прибыли.

Качество: HDTVRip 720p
Видео: MPEG-4 AVC, ~ 4000 Кбит/с, 1280x720
Аудио: MP2, 2 ch, 192 Кбит/с
Продолжительность: 9 x ~ 00:44:00
Перевод: Дублированный

Скриншоты



MediaInfo

General
Unique ID : 199280186694229455310807844011616107897 (0x95EBF7C77DD66F9E36392C5508C5FD79)
Complete name : G:\Раздачи 2\Махинаторы S15 720p GeneralFilm\01 Махинаторы S15 GeneralFilm.mkv
Format : Matroska
Format version : Version 2
File size : 1.29 GiB
Duration : 43 min 52 s
Overall bit rate mode : Constant
Overall bit rate : 4 198 kb/s
Writing application : Lavf54.63.104
Writing library : Lavf54.63.104
Video
ID : 1
Format : AVC
Format/Info : Advanced Video Codec
Format profile : High@L4.1
Format settings : CABAC / 3 Ref Frames
Format settings, CABAC : Yes
Format settings, ReFrames : 3 frames
Codec ID : V_MPEG4/ISO/AVC
Duration : 43 min 52 s
Bit rate mode : Constant
Bit rate : 4 000 kb/s
Width : 1 280 pixels
Height : 720 pixels
Display aspect ratio : 16:9
Frame rate mode : Constant
Frame rate : 50.000 FPS
Standard : PAL
Color space : YUV
Chroma subsampling : 4:2:0
Bit depth : 8 bits
Scan type : Progressive
Bits/(Pixel*Frame) : 0.087
Stream size : 1.20 GiB (93%)
Default : No
Forced : No
Color range : Limited
Color primaries : BT.709
Transfer characteristics : BT.709
Matrix coefficients : BT.709
Audio
ID : 2
Format : MPEG Audio
Format version : Version 1
Format profile : Layer 2
Codec ID : A_MPEG/L2
Codec ID/Hint : MP2
Duration : 43 min 52 s
Bit rate mode : Constant
Bit rate : 192 kb/s
Channel(s) : 2 channels
Sampling rate : 48.0 kHz
Compression mode : Lossy
Delay relative to video : 4 ms
Stream size : 60.3 MiB (5%)
Language : English
Default : Yes
Forced : No

Название серий

01. Jeep Grand Wagoneer 1988 года.
02. Alfa Romeo Spider Quadrifoglio 1987 года.
03. Порше 924 1987 года.
04. Опель GT 1900 1969 года.
05. Ланча Фульвия 1972 года.
06. Датсун 510 1972 года.
07. Mini Cooper S MC40 2004 года.
08. International Scout 1970 года.
09. Автолюбители наступают.
Благодарю за отличный постер ValkiriaGF
Релиз от:
[Profile] [PM]
Display posts:    
Reply to topic

Current time is: 17-Jul 10:39

All times are UTC + 3



You cannot post new topics in this forum
You cannot reply to topics in this forum
You cannot edit your posts in this forum
You cannot delete your posts in this forum
You cannot vote in polls in this forum
You cannot attach files in this forum
You cannot download files in this forum