Легенда о демонической кошке / Legend of the Demon Cat (Yao mao zhuan (Kûkai)) (2017) BDRip 1080p

Reply to topic
 
Author Message

Monk ®

Gender: Male

Longevity: 11 months 6 days

Posts: 9032

Location: Казань

Post 26-Nov-2018 12:05

[Quote]

Легенда о демонической кошке / Legend of the Demon Cat (Yao mao zhuan (Kûkai)) Год выпуска: 2017
Жанр: Драма, фэнтези, мистика, детектив
Выпущено: Китай, Япония, 21 Century Shengkai Film, Emperor Motion Pictures, Kadokawa, New Classics Media
Режиссер: Кайгэ Чэнь
В ролях: Сюань Хуан, Сёта Сомэтани, Юки Чжан, Эрик Цинь, Хироси Абэ, Тайшэн Чэнь, Мэйсон Ли, Хаожань Лю, Пэйци Лю, Кэйко Мацудзака, Охо Оу, Сандрин Пинна, И Цинь, Тянь Юй, Байцинь Синь, Эдвард Чжан, Тяньай Чжан
О фильме: Монах Кукай — крупный религиозный и государственный деятель эпохи Хэйан. Легенда буддизма, основатель эзотерической школы «Сингон».В 804 году он был еще совсем молодым человеком, когда в составе дипломатической миссии отправился в Китай, чтобы изучать священные тексты Ваджраяны. Будучи представлен при дворе великого танского императора Сянь-цзуна, Кукай познакомился с чиновником (в будущем — великим поэтом) Бо Цзюйи. Новые приятели не подозревали, что скоро им предстоит принять участие в расследовании серии загадочных убийств.

Качество: BDRip 1080p
Видео: MPEG-4 AVC, 12 Мбит/с, 1920x804, 24 Кадр/с
Аудио: Русский (AC3, 2 ch, 192 Кбит/с), китайский (AC3, 6 ch, 384 Кбит/с)
Продолжительность: 02:09:05
Перевод: Любительский двухголосый [East Dream]
Субтитры: Английские

Скриншоты



MediaInfo

General
Unique ID : 238158236095094279216957809848410985964 (0xB32B9B9B6398ABF0916F981093A855EC)
Complete name : Legend.of.the.Demon.Cat.2017.BDRip.1080p.mkv
Format : Matroska
Format version : Version 4 / Version 2
File size : 11.3 GiB
Duration : 2 h 9 min
Overall bit rate : 12.6 Mb/s
Encoded date : UTC 2018-04-29 17:54:51
Writing application : mkvmerge v7.1.0 ('Good Love') 64bit built on Jul 27 2014 13:06:55
Writing library : libebml v1.3.0 + libmatroska v1.4.1
Video
ID : 1
Format : AVC
Format/Info : Advanced Video Codec
Format profile : High@L4.1
Format settings : CABAC / 4 Ref Frames
Format settings, CABAC : Yes
Format settings, ReFrames : 4 frames
Codec ID : V_MPEG4/ISO/AVC
Duration : 2 h 9 min
Bit rate : 12.0 Mb/s
Width : 1 920 pixels
Height : 804 pixels
Display aspect ratio : 2.40:1
Frame rate mode : Constant
Frame rate : 24.000 FPS
Color space : YUV
Chroma subsampling : 4:2:0
Bit depth : 8 bits
Scan type : Progressive
Bits/(Pixel*Frame) : 0.324
Stream size : 10.8 GiB (95%)
Writing library : x264 core 155 r2867+74 66b5600 t_mod_Custom_2 [8-bit@all X86_64]
Encoding settings : cabac=1 / ref=4 / deblock=1:-3:-3 / analyse=0x3:0x133 / me=umh / subme=11 / psy=1 / fade_compensate=0.00 / psy_rd=0.95:0.10 / mixed_ref=1 / me_range=48 / chroma_me=1 / trellis=2 / 8x8dct=1 / cqm=0 / deadzone=21,11 / fast_pskip=0 / chroma_qp_offset=-4 / threads=12 / lookahead_threads=2 / sliced_threads=0 / nr=0 / decimate=1 / interlaced=0 / bluray_compat=0 / constrained_intra=0 / fgo=0 / bframes=9 / b_pyramid=2 / b_adapt=2 / b_bias=0 / direct=3 / weightb=1 / open_gop=0 / weightp=2 / keyint=250 / keyint_min=24 / scenecut=40 / intra_refresh=0 / rc_lookahead=30 / rc=2pass / mbtree=0 / bitrate=12000 / ratetol=1.0 / qcomp=0.70 / qpmin=0:0:0 / qpmax=69:69:69 / qpstep=4 / cplxblur=20.0 / qblur=0.5 / vbv_maxrate=35000 / vbv_bufsize=35000 / nal_hrd=none / filler=0 / ip_ratio=1.40 / pb_ratio=1.30 / aq=3:1.00 / aq-sensitivity=10.00 / aq-factor=1.00:1.00:1.00 / aq2=0 / aq3=2:[0.50:0.50]:[0.50:0.50]:[0.50:0.50]:[0.50:0.50] / aq3-sensitivity=10.00 / aq3-factor=[1.00:1.00]:[1.00:1.00]:[1.00:1.00] / aq3-boundary=192:64:24
Language : Chinese
Default : Yes
Forced : No
Audio #1
ID : 2
Format : AC-3
Format/Info : Audio Coding 3
Codec ID : A_AC3
Duration : 2 h 9 min
Bit rate mode : Constant
Bit rate : 192 kb/s
Channel(s) : 2 channels
Channel positions : Front: L R
Sampling rate : 48.0 kHz
Frame rate : 31.250 FPS (1536 SPF)
Bit depth : 16 bits
Compression mode : Lossy
Stream size : 177 MiB (2%)
Language : Russian
Service kind : Complete Main
Default : Yes
Forced : No
Audio #2
ID : 3
Format : AC-3
Format/Info : Audio Coding 3
Codec ID : A_AC3
Duration : 2 h 9 min
Bit rate mode : Constant
Bit rate : 384 kb/s
Channel(s) : 6 channels
Channel positions : Front: L C R, Side: L R, LFE
Sampling rate : 48.0 kHz
Frame rate : 31.250 FPS (1536 SPF)
Bit depth : 16 bits
Compression mode : Lossy
Stream size : 355 MiB (3%)
Language : Chinese
Service kind : Complete Main
Default : No
Forced : No
Text
ID : 4
Format : UTF-8
Codec ID : S_TEXT/UTF8
Codec ID/Info : UTF-8 Plain Text
Duration : 2 h 3 min
Bit rate : 31 b/s
Count of elements : 1262
Stream size : 28.5 KiB (0%)
Language : English
Default : Yes
Forced : Yes
Menu
00:00:00.000 : en:00:00:00.000
00:09:09.750 : en:00:09:09.750
00:19:17.125 : en:00:19:17.125
00:27:04.417 : en:00:27:04.417
00:31:07.708 : en:00:31:07.708
00:36:53.167 : en:00:36:53.167
00:42:00.292 : en:00:42:00.292
00:49:10.208 : en:00:49:10.208
00:54:01.917 : en:00:54:01.917
00:59:11.875 : en:00:59:11.875
01:03:47.292 : en:01:03:47.292
01:08:10.500 : en:01:08:10.500
01:12:29.792 : en:01:12:29.792
01:19:49.667 : en:01:19:49.667
01:25:21.958 : en:01:25:21.958
01:31:30.833 : en:01:31:30.833
01:39:10.667 : en:01:39:10.667
01:45:36.083 : en:01:45:36.083
01:53:28.625 : en:01:53:28.625
02:05:46.000 : en:02:05:46.000
[Profile] [PM]
Display posts:    
Reply to topic

Current time is: 20-Oct 18:43

All times are UTC + 3



You cannot post new topics in this forum
You cannot reply to topics in this forum
You cannot edit your posts in this forum
You cannot delete your posts in this forum
You cannot vote in polls in this forum
You cannot attach files in this forum
You cannot download files in this forum