Discovery. Голые и напуганные / Naked and Afraid [6 сезон: 1-14 серии из 14] (2017) HDTVRip 720р

Ответить на тему
 
Автор Сообщение

Starik60 ®

Пол: Мужской

Стаж: 4 месяца 9 дней

Сообщений: 119

Откуда: Москва, Россия

Создавать темы 26-Ноя-2018 12:35

[Цитировать]

Голые и напуганные / Naked and Afraid
Год выпуска: 2017
Жанр: Документальный, реалити-шоу, экстрим
Выпущено: США, Discovery, Renegade 83
Режиссер: Мисси Хьюз, Тимми Пол
В ролях: Клинт Живоин, Эррол Джеймс Снайдер, Пума Кабра, Кайли Фурно
О фильме: Двум голым и незнакомым друг с другом мужчине и женщине приходится выживать в дикой глуши и в экстремальных погодных условиях. В этом сезоне участникам предстоит побывать в африканской саванне и в джунглях Гайаны, на мексиканском острове Кайо Венадо, во влажном тропическом лесу в Таиланде и в непроходимых джунглях Никарагуа. Каждая пара «Робинзонов» должна провести на месте высадки 21 день без одежды, продовольствия и снаряжения, но им разрешено взять с собой одну личную вещь. При этом никакой награды они не получат, ведь это испытание не за главный приз, а проверка своей физической и психологической выносливости. Подстерегающие опасности и непредсказуемость погоды заставят смельчаков действовать сообща. Сталкиваясь с голодом и жаждой, погодными катаклизмами и неизбежными проблемами, удастся ли нашим героям пройти проверку на прочность, или природа окажется сильнее человека?

Качество: HDTVRip 720p
Видео: MPEG-4 AVC, ~ 4000 Кбит/с, 1280x720
Аудио: MP2, 2 ch, 192 Кбит/с
Продолжительность: 14 x ~ 00:45:00
Перевод: Профессиональный (многоголосый, закадровый)

Скриншоты



MediaInfo

General
Unique ID : 166736748260195275105307223237932356731 (0x7D705462A8884C9247F275964C98147B)
Complete name : H:\Раздачи 3\Голые и напуганные S06 720p HitWay\01 Голые и напуганные HitWay.mkv
Format : Matroska
Format version : Version 2
File size : 1.28 GiB
Duration : 43 min 45 s
Overall bit rate mode : Constant
Overall bit rate : 4 197 kb/s
Writing application : Lavf54.63.104
Writing library : Lavf54.63.104
Video
ID : 1
Format : AVC
Format/Info : Advanced Video Codec
Format profile : High@L4.1
Format settings : CABAC / 3 Ref Frames
Format settings, CABAC : Yes
Format settings, ReFrames : 3 frames
Codec ID : V_MPEG4/ISO/AVC
Duration : 43 min 45 s
Bit rate mode : Constant
Bit rate : 4 000 kb/s
Width : 1 280 pixels
Height : 720 pixels
Display aspect ratio : 16:9
Frame rate mode : Constant
Frame rate : 50.000 FPS
Standard : PAL
Color space : YUV
Chroma subsampling : 4:2:0
Bit depth : 8 bits
Scan type : Progressive
Bits/(Pixel*Frame) : 0.087
Stream size : 1.20 GiB (93%)
Default : No
Forced : No
Color range : Limited
Color primaries : BT.709
Transfer characteristics : BT.709
Matrix coefficients : BT.709
Audio
ID : 2
Format : MPEG Audio
Format version : Version 1
Format profile : Layer 2
Codec ID : A_MPEG/L2
Codec ID/Hint : MP2
Duration : 43 min 45 s
Bit rate mode : Constant
Bit rate : 192 kb/s
Channel(s) : 2 channels
Sampling rate : 48.0 kHz
Compression mode : Lossy
Delay relative to video : 8 ms
Stream size : 60.1 MiB (5%)
Language : English
Default : Yes
Forced : No
Релиз от:
[Профиль] [ЛС]
Показать сообщения:    
Ответить на тему

Текущее время: 22-Мар 10:23

Часовой пояс: UTC + 3



Вы не можете начинать темы
Вы не можете отвечать на сообщения
Вы не можете редактировать свои сообщения
Вы не можете удалять свои сообщения
Вы не можете голосовать в опросах
Вы не можете прикреплять файлы к сообщениям
Вы не можете скачивать файлы