Сингулярность / Singularity (2017) BDRip 1080p | iTunes

Reply to topic
 
Author Message

Monk ®

Gender: Male

Longevity: 6 months 9 days

Posts: 6383

Location: Казань

Post 26-Nov-2018 12:45

[Quote]

Сингулярность / Singularity Год выпуска: 2017
Жанр: Фантастика
Выпущено: Швейцария, США, Calanda Pictures, Vantis Pictures, Voltage Pictures
Режиссер: Роберт Коуба
В ролях: Джулиан Шаффнер, Джон Кьюсак, Кармен Ардженциано, Эйлин Грубба, Джаннин Вакер, Пол Америкэн, Павел Бубряк, Дэвид Крисман, Элиза Дворакова
О фильме: В 2020 году глава компании VA Industries, крупнейшей в области робототехники, представляет миру свое последнее изобретение – компьютер Кронос, который должен положить конец войнам во всём мире. Кронос быстро понимает, что главная угроза миру на Земле – сами люди, и запускает программу по уничтожению человечества. 97 лет спустя небольшая группа выживших людей всё ещё скрывается от армии роботов. Подростки Эндрю и Калия объединяются в поисках нового мира, где, по слухам, люди живут, не опасаясь роботов. Но существует ли этот мир, и смогут ли они его найти?

Качество: BDRip 1080p
Видео: MPEG-4 AVC, 1920x808, 8642 Kбит/с, 23.976 кадр/с
Аудио: Русский (AC3, 6 ch, 384 Кбит/с), английский (DTS, 6 ch, 1509 Кбит/с)
Продолжительность: 01:32:27
Перевод: Дублированный [iTunes]
Субтитры: Английские

Скриншоты



MediaInfo

General
Unique ID : 223547095859441815915952713947273923550 (0xA82D9AC663277A58A5BCA64D2A9E8BDE)
Complete name : Singularity.2017.BDRip.1080p.mkv
Format : Matroska
Format version : Version 4
File size : 6.80 GiB
Duration : 1 h 32 min
Overall bit rate : 10.5 Mb/s
Encoded date : UTC 2018-11-15 19:21:22
Writing application : mkvmerge v7.1.0 ('Good Love') 64bit built on Jul 27 2014 13:06:55
Writing library : libebml v1.3.0 + libmatroska v1.4.1
Video
ID : 1
Format : AVC
Format/Info : Advanced Video Codec
Format profile : High@L4.1
Format settings : CABAC / 5 Ref Frames
Format settings, CABAC : Yes
Format settings, ReFrames : 5 frames
Codec ID : V_MPEG4/ISO/AVC
Duration : 1 h 32 min
Bit rate : 8 642 kb/s
Width : 1 920 pixels
Height : 808 pixels
Display aspect ratio : 2.40:1
Frame rate mode : Constant
Frame rate : 23.976 (24000/1001) FPS
Color space : YUV
Chroma subsampling : 4:2:0
Bit depth : 8 bits
Scan type : Progressive
Bits/(Pixel*Frame) : 0.232
Stream size : 5.58 GiB (82%)
Writing library : x264 core 152 r2851 ba24899
Encoding settings : cabac=1 / ref=5 / deblock=1:-3:-3 / analyse=0x3:0x113 / me=umh / subme=8 / psy=1 / psy_rd=1.00:0.00 / mixed_ref=1 / me_range=32 / chroma_me=1 / trellis=1 / 8x8dct=1 / cqm=0 / deadzone=21,11 / fast_pskip=1 / chroma_qp_offset=-2 / threads=24 / lookahead_threads=4 / sliced_threads=0 / nr=0 / decimate=1 / interlaced=0 / bluray_compat=0 / constrained_intra=0 / bframes=3 / b_pyramid=2 / b_adapt=2 / b_bias=0 / direct=3 / weightb=1 / open_gop=0 / weightp=2 / keyint=240 / keyint_min=24 / scenecut=40 / intra_refresh=0 / rc_lookahead=50 / rc=2pass / mbtree=1 / bitrate=8642 / ratetol=1.0 / qcomp=0.60 / qpmin=0 / qpmax=69 / qpstep=4 / cplxblur=20.0 / qblur=0.5 / ip_ratio=1.40 / aq=3:0.80
Language : English
Default : Yes
Forced : No
Audio #1
ID : 2
Format : AC-3
Format/Info : Audio Coding 3
Commercial name : Dolby Digital
Codec ID : A_AC3
Duration : 1 h 32 min
Bit rate mode : Constant
Bit rate : 384 kb/s
Channel(s) : 6 channels
Channel layout : L R C LFE Ls Rs
Sampling rate : 48.0 kHz
Frame rate : 31.250 FPS (1536 SPF)
Bit depth : 16 bits
Compression mode : Lossy
Stream size : 254 MiB (4%)
Title : DUB | iTunes
Language : Russian
Service kind : Complete Main
Default : Yes
Forced : No
Audio #2
ID : 3
Format : DTS
Format/Info : Digital Theater Systems
Codec ID : A_DTS
Duration : 1 h 32 min
Bit rate mode : Constant
Bit rate : 1 509 kb/s
Channel(s) : 6 channels
Channel layout : C L R Ls Rs LFE
Sampling rate : 48.0 kHz
Frame rate : 93.750 FPS (512 SPF)
Bit depth : 24 bits
Compression mode : Lossy
Stream size : 998 MiB (14%)
Language : English
Default : No
Forced : No
Text #1
ID : 4
Format : UTF-8
Codec ID : S_TEXT/UTF8
Codec ID/Info : UTF-8 Plain Text
Duration : 1 h 26 min
Bit rate : 35 b/s
Count of elements : 696
Stream size : 22.2 KiB (0%)
Language : English
Default : No
Forced : No
Text #2
ID : 5
Format : UTF-8
Codec ID : S_TEXT/UTF8
Codec ID/Info : UTF-8 Plain Text
Duration : 1 h 26 min
Bit rate : 38 b/s
Count of elements : 743
Stream size : 24.3 KiB (0%)
Title : SDH
Language : English
Default : No
Forced : No
Menu
00:00:00.000 : en:00:00:00.000
00:05:08.016 : en:00:05:08.016
00:11:40.783 : en:00:11:40.783
00:17:39.809 : en:00:17:39.809
00:23:42.671 : en:00:23:42.671
00:29:45.200 : en:00:29:45.200
00:35:08.732 : en:00:35:08.732
00:41:22.146 : en:00:41:22.146
00:46:46.554 : en:00:46:46.554
00:52:18.510 : en:00:52:18.510
00:58:15.492 : en:00:58:15.492
01:04:22.108 : en:01:04:22.108
01:10:04.242 : en:01:10:04.242
01:15:08.212 : en:01:15:08.212
01:20:59.605 : en:01:20:59.605
01:27:24.614 : en:01:27:24.614
[Profile] [PM]
Display posts:    
Reply to topic

Current time is: 23-May 21:00

All times are UTC + 3



You cannot post new topics in this forum
You cannot reply to topics in this forum
You cannot edit your posts in this forum
You cannot delete your posts in this forum
You cannot vote in polls in this forum
You cannot attach files in this forum
You cannot download files in this forum