Нарисованное счастье [1-2 серии из 2] (2018) WEB-DLRip от Files-x

Reply to topic
 
Author Message

Nicodem ®

Gender: Male

Longevity: 11 months

Posts: 253

Post 17-Nov-2018 22:11

[Quote]

Нарисованное счастье
Год выпуска: 2018
Жанр: Мелодрама
Выпущено: Россия, Кинокомпания "Русское"
Режиссер: Игорь Мужжухин
В ролях: Ольга Павловец, Юрий Батурин, Анастасия Стежко, Кирилл Гребенщиков, Дмитрий Муляр, Екатерина Травова, Диана Енакаева, Павел Усачев
О фильме: Двадцатилетняя годовщина брака неожиданно оборачивается настоящим кошмаром для Леры. Тайные похождения ее мужа Антона вскрываются и рушат семью. Но вместо того, чтобы страдать о разбитой судьбе, Лера собирает волю в кулак и решает во что бы то ни стало жить дальше. Она выходит на работу в офис и начинает активную жизнь. Подруга знакомит Леру со своим коллегой врачом Георгием. Вскоре Георгий и Лера понимают, что созданы друг для друга. Но все не так просто…

Качество: WEB-DLRip
Видео: XviD, ~ 1970 Кбит/с, 720x400, 25 Кадр/с
Аудио: AC3, 2 ch, 192 Кбит/с
Продолжительность: 2 х 01:30:00
Перевод: Не требуется
Cубтитры: нет

Скриншоты




MediaInfo

Общее
Полное имя : C:\Users\DOM\Downloads\Нарисованное счастье.2018.WEB-DLRip.by.Nicodem.Files-x\01.Нарисованное счастье.2018.WEB-DLRip.by.Nicodem.Files-x.avi
Формат : AVI
Формат/Информация : Audio Video Interleave
Размер файла : 1,38 Гбайт
Продолжительность : 1 ч. 30 м.
Общий поток : 2172 Кбит/сек
Программа кодирования : VirtualDubMod 1.5.10.3 | www.virtualdub-fr.org || (build 2550/release)
Библиотека кодирования : VirtualDubMod build 2550/release
Видео
Идентификатор : 0
Формат : MPEG-4 Visual
Профиль формата : Advanced Simple@L5
Параметр BVOP формата : 1
Параметр QPel формата : Нет
Параметр GMC формата : Без точки перехода
Параметр матрицы формата : Выборочная
Идентификатор кодека : XVID
Идентификатор кодека/Подсказка : XviD
Продолжительность : 1 ч. 30 м.
Битрейт : 1970 Кбит/сек
Ширина : 720 пикс.
Высота : 400 пикс.
Соотношение сторон : 16:9
Частота кадров : 25,000 кадр/сек
Цветовое пространство : YUV
Подвыборка цветности : 4:2:0
Битовая глубина : 8 бит
Тип развёртки : Прогрессивная
Метод сжатия : С потерями
Бит/(Пиксели*Кадры) : 0.274
Размер потока : 1,25 Гбайт (91%)
Библиотека кодирования : XviD 73
Аудио
Идентификатор : 1
Формат : AC-3
Формат/Информация : Audio Coding 3
Расширение режима : CM (complete main)
Идентификатор кодека : 2000
Продолжительность : 1 ч. 30 м.
Вид битрейта : Постоянный
Битрейт : 192 Кбит/сек
Каналы : 2 канала
Расположение каналов : Front: L R
Частота : 48,0 КГц
Битовая глубина : 16 бит
Метод сжатия : С потерями
Размер потока : 125 Мбайт (9%)
Выравнивание : Разделение по промежуткам
Продолжительность промежутка : 40 мс. (1,00 видеокадр)
Время предзагрузки промежутка : 500 ms
Релиз от:
[Profile] [PM]
Display posts:    
Reply to topic

Current time is: 18-Oct 05:33

All times are UTC + 3



You cannot post new topics in this forum
You cannot reply to topics in this forum
You cannot edit your posts in this forum
You cannot delete your posts in this forum
You cannot vote in polls in this forum
You cannot attach files in this forum
You cannot download files in this forum