Discovery. Взрывая историю / Blowing up History [2 сезон: 1-12 серии из 12] (2017) HDTVRip 720p от GeneralFilm

Reply to topic
 
Author Message

Starik60 ®

Gender: Male

Longevity: 8 months 10 days

Posts: 145

Location: Москва, Россия

Post 26-Nov-2018 12:51

[Quote]

Взрывая историю / Blowing up History
Год выпуска: 2017
Жанр: Документальный, наука, история, археология
Выпущено: США, Discovery Channel
Режиссер: Мартин Горст, Джеймс Франклин
В ролях: Эдит Холл, Гленн Корбетт, Сотирис Трипоскуфис, Дэвид Граф, Василики Элефтериу
О фильме: Глядя на дошедшие до нас памятники древних цивилизаций, трудно поверить, что задолго до появления современных технологий и мощной строительной техники удавалось возводить столь величественные сооружения. В новом сезоне программы Discovery Channel «Взрывая историю» мы попробуем найти ответ на вопрос, как архитекторам и строителям давних эпох удавалось опередить свое время. С помощью компьютерных технологий здания будут разобраны буквально по кирпичикам, чтобы проследить их судьбу, а заодно выяснить, что скрывают каменные стены. В центре внимания окажутся загадочные памятники Древнего Египта: гробница Тутанхамона, знаменитый Сфинкс в Гизе и Карнакский храм. Но и это не всё! Нам предстоит разгадать тайны затерянных пирамид и храмов в непроходимых джунглях, потерянного замка короля Артура и Стоунхенджа.

Качество: HDTVRip 720p
Видео: MPEG-2 AVC, ~ 4000 Кбит/с, 1280x720
Аудио: MP2, 2 ch, 192 Кбит/с
Продолжительность: 12 x ~ 00:44:00
Перевод: Профессиональный (одноголосый, закадровый)

Скриншоты



MediaInfo

General
Unique ID : 47555597360678582364730437212590450260 (0x23C6DFF950FB4184B5D058F4631E2654)
Complete name : H:\Раздачи 3\Взрывая историю s02 720p GeneralFilm\01 Взрывая историю s02 720p GeneralFilm.mkv
Format : Matroska
Format version : Version 2
File size : 1.28 GiB
Duration : 43 min 40 s
Overall bit rate mode : Constant
Overall bit rate : 4 198 kb/s
Writing application : Lavf54.63.104
Writing library : Lavf54.63.104
Video
ID : 1
Format : AVC
Format/Info : Advanced Video Codec
Format profile : High@L4.1
Format settings : CABAC / 3 Ref Frames
Format settings, CABAC : Yes
Format settings, ReFrames : 3 frames
Codec ID : V_MPEG4/ISO/AVC
Duration : 43 min 40 s
Bit rate mode : Constant
Bit rate : 4 000 kb/s
Width : 1 280 pixels
Height : 720 pixels
Display aspect ratio : 16:9
Frame rate mode : Constant
Frame rate : 50.000 FPS
Standard : PAL
Color space : YUV
Chroma subsampling : 4:2:0
Bit depth : 8 bits
Scan type : Progressive
Bits/(Pixel*Frame) : 0.087
Stream size : 1.20 GiB (93%)
Default : No
Forced : No
Color range : Limited
Color primaries : BT.709
Transfer characteristics : BT.709
Matrix coefficients : BT.709
Audio
ID : 2
Format : MPEG Audio
Format version : Version 1
Format profile : Layer 2
Codec ID : A_MPEG/L2
Codec ID/Hint : MP2
Duration : 43 min 40 s
Bit rate mode : Constant
Bit rate : 192 kb/s
Channel(s) : 2 channels
Sampling rate : 48.0 kHz
Compression mode : Lossy
Delay relative to video : 16 ms
Stream size : 60.0 MiB (5%)
Language : English
Default : Yes
Forced : No

Название серий

01. Погребенные секреты Тутанхамона.
02. Тайная история Сфинкса.
03. Проклятие кровавых пирамид.
04. Тайны великого храма Древнего Египта.
05. Храмы, затерянные в джунглях.
06. В поисках замка короля Артура.
07. Призраки Стоунхенджа.
08. Секс, ложь и Тадж-Махал.
09. Покинутый город инков.
10. Тайны Терракотовой армии.
11. Потерянный мир Колизея.
12. Город, затерянный в пустыне.
Благодарю за отличный постер ValkiriaGF
Релиз от:
[Profile] [PM]
Display posts:    
Reply to topic

Current time is: 22-Jul 22:38

All times are UTC + 3



You cannot post new topics in this forum
You cannot reply to topics in this forum
You cannot edit your posts in this forum
You cannot delete your posts in this forum
You cannot vote in polls in this forum
You cannot attach files in this forum
You cannot download files in this forum