Однажды в России [5 сезон: 1-6, 9-26 выпуски] (2018) WEBRip 720p от Files-х

Reply to topic
 
Author Message

bond74 ®

Gender: Male

Longevity: 8 months 8 days

Posts: 555

Post 26-Nov-2018 13:04

[Quote]

Однажды в России Год выпуска: 2018
Жанр: ТВ-шоу, юмор
Выпущено: Россия, ТНТ, Comedy Club Production
Ведущий: Игорь Ласточкин, Ирина Чеснокова, Михаил Стогниенко, Давид Цаллаев, Заур Байцаев, Теймураз Тания, Екатерина Моргунова, Максим Киселёв, Денис Дорохов, Александр Пташенчук, Азамат Мусагалиев, Ольга Картункова
О фильме: Самое острое сатирическое шоу на отечественном телевидении возвращается с новыми выпусками. Все, что нужно знать о России и чего никогда не покажут в новостях. Московский ОМОН ловит в центре столицы покемонов, российские ученые впервые в мире провели операцию по пересадке сознания, в России снимут адаптацию сериала «Игры престолов» и откроют филиал школы магов Хогвардс. Все это и многое другое в новых выпусках «Однажды в России», — шоу, сделанном на невероятном для российского телевидения техническом уровне, и продолжающем традицию сатиры и социального юмора на ТНТ.. Если гость захочет скрыть какую-либо информацию о себе, то он может откупиться, лишившись денег. В этом случае и происходит главный выбор — деньги или позор.
Качество: WEBRip 720p
Видео: MPEG-4 AVC, ~ 3518 Кбит/с, 1280x720, 25 кадр/с
Аудио: AC3, 2 ch, 192 Кбит/с
Продолжительность: 26 х ~ 00:49:00
Перевод: Не требуется
Субтитры: нет

Скриншоты

MediaInfo

General
General
Unique ID : 178534682019313501805760614407565683754 (0x8650876DF007C2218F9A3B09B3932C2A)
Complete name : H:\шоу\Odnazhdy.v.Rossii 8.2018.WEB-DL720p\01. Odnazhdy.v.Rossii 8.2018.WEB-DL 720p. Files-x.mkv
Format : Matroska
File size : 1.30 GiB
Duration : 49mn 14s
Overall bit rate : 3 777 Kbps
Encoded date : UTC 2018-08-22 19:45:27
Writing application : mkvmerge v7.8.0 ('River Man') 32bit built on Apr 3 2015 12:11:22
Writing library : libebml v1.3.1 + libmatroska v1.4.2
Video
ID : 1
Format : AVC
Format/Info : Advanced Video Codec
Format profile : High@L3.1
Format settings, CABAC : Yes
Format settings, ReFrames : 1 frame
Codec ID : V_MPEG4/ISO/AVC
Duration : 49mn 14s
Bit rate : 3 509 Kbps
Width : 1 280 pixels
Height : 720 pixels
Display aspect ratio : 16:9
Frame rate : 25.000 fps
Standard : Component
Color space : YUV
Chroma subsampling : 4:2:0
Bit depth : 8 bits
Scan type : Progressive
Bits/(Pixel*Frame) : 0.152
Stream size : 1.21 GiB (93%)
Audio
ID : 2
Format : AC-3
Format/Info : Audio Coding 3
Mode extension : CM (complete main)
Codec ID : A_AC3
Duration : 49mn 14s
Bit rate mode : Constant
Bit rate : 192 Kbps
Channel(s) : 2 channels
Channel positions : Front: L R
Sampling rate : 44.1 KHz
Bit depth : 16 bits
Compression mode : Lossy
Delay relative to video : 9ms
Stream size : 67.6 MiB (5%)
Релиз от:
[Profile] [PM]
Display posts:    
Reply to topic

Current time is: 23-Jul 11:51

All times are UTC + 3



You cannot post new topics in this forum
You cannot reply to topics in this forum
You cannot edit your posts in this forum
You cannot delete your posts in this forum
You cannot vote in polls in this forum
You cannot attach files in this forum
You cannot download files in this forum