Discovery. Взрывая историю / Blowing up History [3 сезон: 1-13 серии из 13] (2018) HDTVRip 720р от GeneralFilm

Ответить на тему
 
Автор Сообщение

Starik60 ®

Пол: Мужской

Стаж: 4 месяца 6 дней

Сообщений: 119

Откуда: Москва, Россия

Создавать темы 26-Ноя-2018 13:05

[Цитировать]

Взрывая историю / Blowing up History
Год выпуска: 2018
Жанр: Документальный, наука, история, археология
Выпущено: США, Discovery Channel
Режиссер: Мартин Горст, Джеймс Франклин
В ролях: Эдит Холл, Гленн Корбетт, Сотирис Трипоскуфис, Дэвид Граф, Василики Элефтериу
О фильме: Как строили самые известные здания Древнего мира и Средних веков? Как архитекторам той эпохи удалось опередить свое время? Трудно поверить, что столь колоссальные сооружения возводились задолго до появления современных технологий и мощной строительной техники. С помощью компьютерной графики мы «разберем по кирпичикам» старинные постройки и узнаем, как, из чего и для чего возводили древнеегипетские и древнегреческие храмы, а также величественные соборы Европы. Используя данные археологических раскопок и результаты поверхностного сканирования, мы постараемся выяснить, что сокрыто в конструкциях самых знаменитых зданий мира и посмотрим на них в разрезе!

Качество: HDTVRip 720p
Видео: MPEG-2 AVC, ~ 4000 Кбит/с, 1280x720
Аудио: MP2, 2 ch, 384 Кбит/с
Продолжительность: 13 x ~ 00:44:00
Перевод: Профессиональный (двухголосый, закадровый)

Скриншоты



MediaInfo

General
Unique ID : 333413116304348564670027215245772112031 (0xFAD507CBD8B4E78B1DD222AF1CF0C09F)
Complete name : H:\Раздачи 3\Взрывая историю s03 720p GeneralFilm\01 Взрывая историю GeneralFilm.mkv
Format : Matroska
Format version : Version 2
File size : 1.34 GiB
Duration : 43 min 45 s
Overall bit rate mode : Constant
Overall bit rate : 4 390 kb/s
Writing application : Lavf54.63.104
Writing library : Lavf54.63.104
Video
ID : 1
Format : AVC
Format/Info : Advanced Video Codec
Format profile : High@L4.1
Format settings : CABAC / 3 Ref Frames
Format settings, CABAC : Yes
Format settings, ReFrames : 3 frames
Codec ID : V_MPEG4/ISO/AVC
Duration : 43 min 45 s
Bit rate mode : Constant
Bit rate : 4 000 kb/s
Width : 1 280 pixels
Height : 720 pixels
Display aspect ratio : 16:9
Frame rate mode : Constant
Frame rate : 50.000 FPS
Standard : PAL
Color space : YUV
Chroma subsampling : 4:2:0
Bit depth : 8 bits
Scan type : Progressive
Bits/(Pixel*Frame) : 0.087
Stream size : 1.20 GiB (89%)
Default : No
Forced : No
Color range : Limited
Color primaries : BT.709
Transfer characteristics : BT.709
Matrix coefficients : BT.709
Audio
ID : 2
Format : MPEG Audio
Format version : Version 1
Format profile : Layer 2
Codec ID : A_MPEG/L2
Codec ID/Hint : MP2
Duration : 43 min 45 s
Bit rate mode : Constant
Bit rate : 384 kb/s
Channel(s) : 2 channels
Sampling rate : 48.0 kHz
Compression mode : Lossy
Delay relative to video : 8 ms
Stream size : 120 MiB (9%)
Language : English
Default : Yes
Forced : No

Название серий

01. Викинги, город мертвецов.
02. Америка, забытые пирамиды.
03. Запретный город фараонов.
04. Статуя Свободы: новые секреты.
05. Охота за Антлантидой.
06. Взрывая историю
07. Гнев Аттилы.
08. Помпеи.
09. Утраченные обелиски Египта.
10. Ломанная пирамида.
11. Титаник.
12. Тайны запретного города.
13. Последние дни империи Инков.
Благодарю за отличный постер ValkiriaGF
Релиз от:
[Профиль] [ЛС]
Показать сообщения:    
Ответить на тему

Текущее время: 19-Мар 05:32

Часовой пояс: UTC + 3



Вы не можете начинать темы
Вы не можете отвечать на сообщения
Вы не можете редактировать свои сообщения
Вы не можете удалять свои сообщения
Вы не можете голосовать в опросах
Вы не можете прикреплять файлы к сообщениям
Вы не можете скачивать файлы